<?xml version="1.0" standalone="no"?>
<!DOCTYPE svg PUBLIC "-//W3C//DTD SVG 1.1//EN" "http://www.w3.org/Graphics/SVG/1.1/DTD/svg11.dtd">
<svg xmlns="http://www.w3.org/2000/svg">
<metadata>Copyright (C) 2019 by original authors @ fontello.com</metadata>
<defs>
<font id="dce-icon" horiz-adv-x="1000" >
<font-face font-family="dce-icon" font-weight="400" font-stretch="normal" units-per-em="1000" ascent="850" descent="-150" />
<missing-glyph horiz-adv-x="1000" />
<glyph glyph-name="dyn-listsingle" unicode="&#xe800;" d="M263 230h723v-33h-723v33z m0-129h723v-33h-723v33z m0-130h723v-33h-723v33z m-131 764c30-6 53-32 52-64v-26c1-31-22-58-51-64v-62h82v-94c0-14 12-104 26-104 14 0 25 90 25 104v95h82v62c-29 6-52 32-52 64v25c0 31 23 58 52 64v62h-216c0 0 0-62 0-62z" horiz-adv-x="1000" />

<glyph glyph-name="dyn-360" unicode="&#xe801;" d="M995 327c0-60-53-115-149-156-93-39-216-61-347-61-131 0-254 22-347 61-96 41-149 96-149 156 0 70 70 132 193 173l-87 40 10 21 127-58-68-123-20 11 48 88c-113-37-180-93-180-152 0-49 49-98 135-134 90-38 210-59 338-59s248 21 338 59c86 36 135 85 135 134 0 59-67 115-181 152l49-88-21-11-67 123 127 58 10-21-88-40c124-41 194-103 194-173z m-565 10c0 21-15 34-33 38v0c18 7 27 19 27 35 0 17-13 34-41 34-16 0-31-5-39-11l6-14c6 4 17 9 29 9 18 0 26-10 26-22 0-17-19-24-33-24h-11v-15h11c19 0 37-9 38-29 0-13-8-29-33-29-14 0-27 6-33 9l-5-14c7-5 21-10 38-10 35 0 53 20 53 43z m22 18c0 29 10 52 25 66 12 12 28 19 47 22 5 1 10 1 14 1v-16c-4 0-9-1-15-1-31-5-47-28-50-52h0c7 9 19 17 35 17 26 0 44-19 44-47 0-27-18-52-48-52-31 0-52 25-52 62z m20-5c0-24 11-42 32-42 17 1 28 15 28 36 0 21-12 33-30 33-12 0-23-7-28-18-1-2-2-5-2-9z m96 18c0 49 21 76 51 76 30 0 48-27 48-74 0-49-19-77-51-77-28 0-48 27-48 75z m20 0c0-38 12-59 30-59 20 0 29 23 29 60 0 36-9 60-29 60-18 0-30-21-30-61z" horiz-adv-x="1000" />

<glyph glyph-name="dyn-acffields" unicode="&#xe802;" d="M189 419v303h-103v72h291v-72h-103v-303h-85z m365 399l368-212-368-212v424z m-131-730c0-108-88-196-197-196s-196 88-196 196c0 109 88 196 196 196 109 0 197-87 197-196z m85 188h460v-96h-460v96z m0-140h460v-96h-460v96z m0-140h460v-96h-460v96z" horiz-adv-x="1000" />

<glyph glyph-name="dyn-afterbefore" unicode="&#xe803;" d="M13 737v-791h973v791h-973z m267-465l-15-15-91 85 91 85 15-16-64-59h155c0-3 0-7 0-10s0-7 0-11h-155l64-59z m219-38c-59 0-108 48-108 108 0 59 49 108 108 108 60 0 108-49 108-108 0-60-48-108-108-108z m466-267h-455v246c62 5 113 55 118 118h142l-64-59 14-16 92 85-92 86-14-16 63-59h-142c-5 63-55 113-118 118v246h456v-749z" horiz-adv-x="1000" />

<glyph glyph-name="dyn-animate_text" unicode="&#xe804;" d="M472 391l-77 9 5 43 205-24-5-43-77 9-25-207-51 6 25 207z m250-129h-97v55h259v-55h-97v-262h-65v262z m-435 261l-51 23 13 28 135-61-12-28-51 23-62-137-34 15 62 137z m-76 157l-21 42 23 12 56-113-24-12-20 43-115-57-14 29 115 56z" horiz-adv-x="1000" />

<glyph glyph-name="dyn-breadcrumbs" unicode="&#xe805;" d="M608 346c0-47-39-85-86-85-47 0-86 38-86 85 0 48 39 86 86 86 47 0 86-38 86-86z m306 70c-38 0-69-31-69-70 0-38 31-69 69-69 39 0 70 31 70 69 0 39-31 70-70 70m0 16c48 0 86-38 86-86 0-47-38-85-86-85-47 0-85 38-85 85 0 48 38 86 85 86l0 0z m-552-86l-63 63-19-18 45-45-45-44 19-19 63 63z m397 0l-63 63-19-18 45-45-45-44 19-19 63 63z m-563 96h-193v-192h193v192z" horiz-adv-x="1000" />

<glyph glyph-name="dyn-bubbles" unicode="&#xe806;" d="M473 587c0-79-63-142-141-142s-142 63-142 142 63 141 142 141 141-63 141-141z m172-11c-47 0-86-39-86-87s39-86 86-86 87 39 87 86-39 87-87 87z m-202-289c-31 0-56-26-56-57s25-57 56-57 57 26 57 57-25 57-57 57z m125 60c-9 0-17-8-17-18 0-9 8-17 17-17s18 8 18 17c0 10-8 18-18 18z m-59-196c-9 0-17-8-17-18s8-17 17-17 18 8 18 17-8 18-18 18z m268 577c-25 0-45-20-45-45s20-45 45-45c25 0 45 20 45 45s-20 45-45 45z m-67-458c-22 0-40-18-40-40s18-40 40-40 40 18 40 40-18 40-40 40z m-201-221c-32 0-59-26-59-59 0-33 26-59 59-59s60 26 60 59c-1 33-27 59-60 59z" horiz-adv-x="1000" />

<glyph glyph-name="dyn-carousel" unicode="&#xe807;" d="M444 148c0-11-9-20-20-20s-20 9-20 20 9 20 20 20 20-9 20-20z m127 20c-11 0-20-9-20-20s9-20 20-20c11 0 20 9 20 20s-9 20-20 20z m-73 9c-16 0-29-13-29-29s13-28 29-28c15 0 28 13 28 28s-13 29-28 29z m-430 217l-51-51 51-52 11 11-41 41 41 41-11 10z m861-103l51 52-51 51-11-10 41-41-41-41 11-11z m-717 340h571v-577h-571v577z m20-557h531v537h-531v-537z m638 547h102v20h-122v-597h122v20h-102v557z m-851 0h102v-557h-102v-20h122v597h-122v-20z" horiz-adv-x="1000" />

<glyph glyph-name="dyn-content" unicode="&#xe808;" d="M386 754h614v-61h-614v61z m0-123h466v-62h-466v62z m0-123h614v-62h-614v62z m-383-124h849v-61h-849v61z m0-123h997v-61h-997v61z m0-241h997v-62h-997v62z m0 118h849v-62h-849v62z m-3 616h308v-308h-308v308z" horiz-adv-x="1000" />

<glyph glyph-name="dyn-customfields" unicode="&#xe809;" d="M1005 179h-1006v365h1006v-365z m-989 16h972v332h-972v-332z m328 341h17v-349h-17v349z m196-144c17 0 31-14 31-31s-14-30-31-30-31 13-31 30 14 31 31 31z m169-31c0-17-13-30-30-30-17 0-31 13-31 30 0 17 14 31 31 31 16 0 30-14 30-31z m108 31c17 0 30-14 30-31s-13-30-30-30-31 13-31 30 14 31 31 31z" horiz-adv-x="1000" />

<glyph glyph-name="dyn-date" unicode="&#xe80a;" d="M198 187l156 339 25-11-156-339-25 11z m442 0l156 339 25-11-156-339-25 11z m-461 164c0-49-40-88-89-88s-88 39-88 88 39 88 88 88c49 0 89-39 89-88z m413 0c0-49-39-88-88-88-49 0-88 39-88 88s39 88 88 88 88-39 88-88z m405 0c0-49-40-88-89-88s-88 39-88 88 40 88 88 88 89-39 89-88z" horiz-adv-x="1000" />

<glyph glyph-name="dyn-doshortc" unicode="&#xe80b;" d="M823 712l1 1-126 124-1-1h-476v-723h269v-200l-75 80-19-17 107-115 107 115-19 17-75-80v200h309 0v599h-2z m-125 92l95-92h-95v92z m104-669h-286v265h-26v-265h-247v678h432v-123h127v-555z m-460 483h72v-22h-45v-271h45v-21h-72v314z m254 0h72v-314h-72v21h45v271h-45v22z" horiz-adv-x="1000" />

<glyph glyph-name="dyn-dualview" unicode="&#xe80c;" d="M497-66c-6 0-11 4-11 10v34h-392c-38 0-70 32-70 71v596c0 39 32 71 70 71h392v34c0 6 5 10 11 10s11-4 11-10v-34h392c38 0 70-32 70-71v-596c0-39-32-70-70-70h-392v-34c0-6-5-11-11-11z m11 66h392c27 0 49 22 49 49v526h-441v-53h332c22 0 40-18 40-41v-164c0-22-18-40-40-40h-332v-38h64c22 0 40-18 40-41v-104c0-22-18-40-40-40h-64v-54z m-463 49c0-27 22-49 49-49h392v575h-441v-526z m463 25h64c10 0 19 9 19 20v104c0 11-9 19-19 19h-64v-143z m0 239v-15h332c11 0 19 9 19 19v168l-160-160c-2-2-5-3-8-3-3 0-6 1-8 3l-82 82-93-94z m0 30l86 86c2 2 5 3 8 3 3 0 5-1 7-3l82-82 154 154h-337v-158z m0 253h441v49c0 27-22 49-49 49h-392v-98z m-414 98c-27 0-49-22-49-49v-49h441v98h-392z m597-641c-22 0-40 18-40 40v105c0 22 18 40 40 40h149c22 0 40-18 40-40v-105c0-22-18-40-40-40h-149z m0 164c-11 0-19-9-19-19v-105c0-10 8-19 19-19h149c11 0 19 9 19 19v105c0 10-8 19-19 19h-149z m-378-108c-18 0-33 15-33 33v99c0 18 15 33 33 33h99c18 0 33-15 33-33v-99c0-18-15-33-33-33h-99z m-195 0c-19 0-34 15-34 33v99c0 18 15 33 34 33h98c19 0 34-15 34-33v-99c0-18-15-33-34-33h-98z m603 4c-6 0-11 4-11 10 0 6 5 11 11 11h44c6 0 11-5 11-11 0-6-5-10-11-10h-44z m0 44c-6 0-11 5-11 11s5 11 11 11h89c6 0 11-5 11-11s-5-11-11-11h-89z m-408 166c-18 0-33 15-33 34v98c0 19 15 34 33 34h99c18 0 33-15 33-34v-98c0-19-15-34-33-34h-99z m-195 0c-19 0-34 15-34 34v98c0 19 15 34 34 34h98c19 0 34-15 34-34v-98c0-19-15-34-34-34h-98z m573 73c-22 0-40 18-40 40s18 41 40 41c22 0 40-18 40-41s-18-40-40-40z m0 60c-11 0-19-9-19-20s8-19 19-19 19 9 19 19-8 20-19 20z m179 179c-6 0-11 4-11 10s5 11 11 11h30c6 0 10-5 10-11s-4-10-10-10h-30z m-686 0c-3 0-6 1-8 3-2 2-3 4-3 7s1 6 3 8c2 2 5 3 8 3s6-1 8-3c2-2 3-5 3-8s-1-5-3-7c-3-2-5-3-8-3z m-45 0c-2 0-5 1-7 3-2 2-3 4-3 7s1 6 3 8c2 2 4 3 7 3s6-1 8-3c2-2 3-5 3-8s-1-5-3-7c-2-2-5-3-8-3z m-45 0c-2 0-5 1-7 3-2 2-3 4-3 7s1 6 3 8c2 2 4 3 7 3s6-1 8-3c2-2 3-5 3-8s-1-5-3-7c-2-2-5-3-8-3z" horiz-adv-x="1000" />

<glyph glyph-name="dyn-excerpt" unicode="&#xe80d;" d="M1000 667h-1000v66h1000v-66z m-395-66h-605v-66h605v66z m395-131h-1000v-66h1000v66z m-390-195h-615v72h615v-72z m-10 62h-595v-52h595v52z m405-113v-72h-1010v72h1010z m-10-10h-990v-52h990v52z m-1000-114h615v-72h-615v72z m10-62h595v52h-595v-52z" horiz-adv-x="1000" />

<glyph glyph-name="dyn-filebrowser" unicode="&#xe80e;" d="M263 230h723v-33h-723v33z m0-129h723v-33h-723v33z m0-130h723v-33h-723v33z m207 663h-27v-314h-326v444h198v27h-225v-498h380v341z m-133 99l76-77h-76v77m-24 58v-159h159l-159 159 0 0z" horiz-adv-x="1000" />

<glyph glyph-name="dyn-filters" unicode="&#xe80f;" d="M180 178h191v190h-191v-190z m20 170h151v-150h-151v150z m202-170h191v190h-191v-190z m20 170h151v-150h-151v150z m202-170h191v190h-191v-190z m20 170h151v-150h-151v150z m-464-393h191v190h-191v-190z m20 170h151v-150h-151v150z m202-170h191v190h-191v-190z m20 170h151v-150h-151v150z m202-170h191v190h-191v-190z m20 170h151v-150h-151v150z m-307 566h-242v73h242v-73z m39 0h243v73h-243v-73z m20 53h203v-33h-203v33z m504 20v-73h-242v73h242z m-524-134h243l-84-65v-67l-69-44v111l-90 65z" horiz-adv-x="1000" />

<glyph glyph-name="dyn-formats" unicode="&#xe810;" d="M260 785l43 44 153-152-44-44c-25 16-59 14-82-9l-18-17c-22-23-25-57-8-82l-44-44-58 58-67-67c-10-10-81-65-91-54-10 10 45 81 55 91l67 67-58 57 44 44c25-17 59-14 81 9l18 18c23 22 25 56 9 81l0 0z m449-15l233 42c12 2 21-10 21-21v-263c0-41-33-74-74-74-40 0-74 33-74 74 0 41 34 74 74 74 12 0 22-3 32-7v132l-190-42v-189c-5-36-37-63-74-63-41 0-74 33-74 74 0 41 33 74 74 74 11 0 22-3 31-7v174c1 12 10 20 21 22z m-332-533h47c13 0 25-11 25-25v-309c0-14-12-25-25-25h-310c-13 0-25 11-25 25v47h-46c-14 0-25 11-25 25v309c0 14 11 25 25 25h309c14 0 25-11 25-25v-47h0z m-311-239h263v263h-263c0 0 0-263 0-263z m119 203c0 20-16 36-36 36s-36-16-36-36 16-36 36-36c20 0 36 16 36 36z m48-108c0 0 24 120 72 120v-191h-216v143c48 0 48-71 48-71s8 48 48 48c40-1 48-49 48-49z m168-167v263h-24v-214c0-14-12-25-25-25h-215v-24h264z m362 66c0 21-5 39-17 53-17 22-51 25-71 21-8 46 31 105 82 130l-39 55c-77-37-152-120-139-226 8-67 47-111 101-111 24 0 44 7 60 21 16 14 23 33 23 57z m226 0c0 21-6 39-17 53-18 22-52 25-71 21-8 46 31 105 82 130l-39 55c-77-37-152-120-139-226 8-67 46-111 101-111 24 0 44 7 59 21 16 14 24 33 24 57l0 0z" horiz-adv-x="1000" />

<glyph glyph-name="dyn-grid" unicode="&#xe811;" d="M25 823h286v-286h-286v286z m597-20v-246h-246v246h246m20 20h-286v-286h286v286l0 0z m312-20v-246h-246v246h246m20 20h-286v-286h286v286l0 0z m-683-356v-246h-246v246h246m20 20h-286v-286h286l0 286 0 0z m311-20v-246h-246v246h246m20 20h-286v-286h286v286l0 0z m312-20v-246h-246v246h246m20 20h-286v-286h286v286l0 0z m-683-354v-246h-246v246h246m20 20h-286v-286h286l0 286 0 0z m311-20v-246h-246v246h246m20 20h-286v-286h286v286l0 0z m312-20v-246h-246v246h246m20 20h-286v-286h286v286l0 0z" horiz-adv-x="1000" />

<glyph glyph-name="dyn-image" unicode="&#xe812;" d="M9 817v-938h979v938h-979z m473-469l-450-431v862l450-431z m-433 446h900l-450-431-450 431z m450-462l450-431h-900l450 431z m16 16l451 431v-862l-451 431z" horiz-adv-x="1000" />

<glyph glyph-name="dyn-incfile" unicode="&#xe813;" d="M823 712l1 1-126 124-1-1h-476v-723h269v-200l-75 80-19-17 107-115 107 115-19 17-75-80v200h309 0v599h-2z m-125 92l95-92h-95v92z m104-669h-286v265h-26v-265h-247v678h432v-123h127v-555z m-376 473c-26-35-44-81-44-145 0-62 19-107 44-142h-24c-23 29-46 74-46 143 0 69 24 114 46 144h24z m188 0c22-29 46-75 46-144-1-69-24-114-46-143h-24c24 35 44 80 44 143s-19 108-44 144h24z" horiz-adv-x="1000" />

<glyph glyph-name="dyn-infinite_posts" unicode="&#xe814;" d="M583 163l-62-62v141c0 7-5 12-12 12s-13-5-13-12v-141l-62 62c-5 5-13 5-18 0-5-5-5-13 0-18l84-84c2-2 5-4 9-4s6 2 8 4l84 84c5 5 5 13 0 18-5 5-13 5-18 0z m321 642h-804c-7 0-13-5-13-12v-636c0-7 6-13 13-13h104v-217c0-7 6-13 13-13h583c7 0 13 6 13 13v217h91c7 0 13 6 13 13v636c0 7-6 12-13 12z m-117-865h-557v217 260h557v-260-217z m105 230h-79v260c0 7-6 13-13 13h-583c-1 0-1 0-2-1 0 0-1 0-1 0-1 0-1 0-1 0 0 0-1 0-1 0-1-1-1-1-1-1-1 0-1-1-2-1 0 0 0 0-1-1s-1-1-1-1c0-1-1-1-1-1 0-1 0-1 0-1 0-1-1-1-1-2 0 0 0 0 0 0 0-1 0-1 0-2 0 0 0-1 0-2v-260h-92v610h779v-610z m-439 361c21 0 40 10 51 25 12-15 31-25 51-25 35 0 64 29 64 64s-29 64-64 64c-20 0-39-10-51-26-11 16-30 26-51 26-35 0-64-29-64-64s29-64 64-64z m102 102c21 0 39-17 39-38s-18-39-39-39-38 18-38 39 17 38 38 38z m-102 0c21 0 39-17 39-38s-18-39-39-39-38 18-38 39 17 38 38 38z" horiz-adv-x="1000" />

<glyph glyph-name="dyn-layout" unicode="&#xe815;" d="M483 371h-432v432h432v-432z m432 432h-369v-58h369v58z m-369-126v-17h414v17h-414z m0-65h414v18h-414v-18z m0-47h414v18h-414v-18z m0-47h414v17h-414v-17z m0-47h414v17h-414v-17z m0-47h414v17h-414v-17z m0-48h414v17h-414v-17z m-245-155h378v40h-378v-40z m-54-128c-56 0-101-46-101-102 0-56 45-101 101-101s101 45 101 101c0 56-45 102-101 102z m243 0c-56 0-101-46-101-102 0-56 45-101 101-101s101 45 101 101c0 56-45 102-101 102z m243 0c-56 0-101-46-101-102 0-56 45-101 101-101s101 45 101 101c0 56-45 102-101 102z m-366 74h245v13h-245v-13z" horiz-adv-x="1000" />

<glyph glyph-name="dyn-like" unicode="&#xe816;" d="M757 791c-15 2-29 2-43 2-104 0-158-45-209-103-50 58-104 103-208 103-14 0-28 0-43-1-96-10-205-95-218-261v-53-1c14-181 165-369 461-577l9-6 8 5c296 208 447 397 461 577v53 2c-13 165-122 251-218 260z m-50-472h-160v-168h-82v168h-161v79h161v167h82v-167h160v-79z" horiz-adv-x="1000" />

<glyph glyph-name="dyn-logo-dce" unicode="&#xe817;" d="M277 724h-278v-750h345c220 0 377 141 377 364 0 275-193 386-444 386z m-2-556h-55l146 353h55l-146-353z m625 362c54 0 97 43 97 97 0 53-43 96-97 96s-96-43-96-96c0-54 43-97 96-97z m0-84c-53 0-96-43-96-97s43-96 96-96 97 43 97 96-43 97-97 97z m0-278c-53 0-96-43-96-96 0-53 43-96 96-96s97 43 97 96c0 53-43 96-97 96z" horiz-adv-x="1000" />

<glyph glyph-name="dyn-map" unicode="&#xe818;" d="M474 280l-214-293h-258v683l472-390z m364 443l-84-115c81-20 141-91 143-177h0c0-1 0-2 0-3 0 0 0-1 0-2h0c-1-34-12-71-28-107l128-84v488h-159z m-304-361c-7 22-11 43-12 64h0c0 1 0 1 0 2 0 1 0 2 0 3h0c3 101 86 182 188 182 2 0 4 0 7 0l80 110h-795v-10l492-406 40 55z m175-270c0 0-110 114-162 233l-246-338h696v208l-143 94c-56-105-145-197-145-197z m61 350c0 33-27 61-61 61-33 0-60-27-60-61 0-33 27-61 60-61 34 0 61 28 61 61z" horiz-adv-x="1000" />

<glyph glyph-name="dyn-mockup" unicode="&#xe819;" d="M244 593h-94v19h94v-19z m-47-494c-10 0-19-9-19-20s8-20 19-20c11 0 20 9 20 20s-9 20-20 20z m793 12h-1v-43h-611v-8c0-25-20-46-45-46h-271c-25 0-46 21-46 46v561c0 25 20 45 46 45h271c25 0 45-20 45-45v-20h412c22 0 40-18 40-40v-356l160-94z m-612 76v-57h543l-97 57h-446z m433 19v324h-433v-324h433z m-433 376v-33h433v12c0 12-10 21-21 21h-412z m-343 39v-65h324v65c0 14-12 26-26 26h-271c-15 0-27-12-27-26z m0-84v-390h324v390h-324z m324-477v68h-324v-68c0-15 12-27 27-27h271c14 0 26 12 26 27z m611 51h-592v-24h592v24z" horiz-adv-x="1000" />

<glyph glyph-name="dyn-modal" unicode="&#xe81a;" d="M499 838c0 0 0 0 0 0 0 0 0 0 0 0 0 0 0 0 0 0 0 0 0 0 0 0 0 0 0 0 0 0 0 0 0 0 0 0 0 0 0 0 0 0 0 0 0 0 0 0 0 0 0 0 0 0 0 0 0 0 0 0 0 0 0 0-1 0 0 0 0 0 0 0 0 0 0 0 0 0 0 0 0 0 0 0 0 0 0 0 0 0 0 0 0 0 0 0 0 0 0 0 0 0 0 0 0 0 0 0 0 0 0 0 0 0 0 0 0 0 0 0 0 0 0 0 0 0 0 0 0 0 0 0 0 0 0 0 0 0 0 0 0 0 0 0 0 0 0 0 0 0 0 0 0 0 0 0 0 0 0 0 0 0 0 0 0 0 0 0 0 0 0 0 0 0 0 0 0 0 0 0 0 0 0 0 0 0 0 0 0 0 0 0 0 0 0 0 0 0 0 0 0 0 0 0 0 0 0 0 0 0 0 0 0 0 0 0 0 0 0 0 0 0 0 0 0 0 0 0 0 0 0 0 0 0 0 0 0 0 0 0 0 0 0 0 0 0 0 0 0 0 0 0 0 0 0 0 0 0 0 0 0 0 0 0 0 0 0 0 0 0 0 0 0 0 0 0 0 0 0 0 0 0 0 0 0 0 0 0 0 0 0 0 0 0 0 0 0 0 0 0 0 0 0 0 0 0 0 0 0 0 0 0 0 0 0 0 0 0 0 0 0 0 0 0 0 0 0 0 0 0 0 0 0 0 0 0 0 0 0 0 0 0 0 0 0 0 0 0 0 0 0 0 0 0 0 0 0 0 0 0 0 0 0 0 0 0 0 0 0 0 0 0 0 0 0 0 0 0 0 0 0 0 0 0 0 0 0 0 0 0 0 0 0 0 0 0 0 0 0 0 0 0 0 0 0 0 0 0 0 0 0 0 0 0 0 0 0 0-1 0 0 0 0 0 0 0 0 0 0 0 0 0 0 0 0 0 0 0 0 0 0 0 0 0 0 0 0 0 0 0 0 0 0 0 0 0 0 0 0 0 0 0 0 0 0 0 0 0 0 0 0 0 0 0 0 0 0 0 0 0 0 0 0 0 0 0 0 0 0 0 0 0 0 0 0 0 0 0 0 0 0 0 0 0 0 0 0 0 0 0 0 0 0 0 0 0 0 0 0 0 0 0 0 0 0 0 0 0 0 0 0 0 0 0 0 0 0 0 0 0 0 0 0 0 0 0 0 0 0 0 0 0 0 0 0 0 0 0 0 0 0 0 0 0 0 0 0 0 0 0 0 0 0 0 0 0 0 0 0 0 0 0 0 0 0 0 0 0 0 0 0 0 0 0 0 0-1 0-1 0 0 0 0 0 0 0 0 0 0 0 0 0 0 0 0 0 0 0 0 0 0 0 0 0 0 0 0 0 0 0 0 0 0 0 0 0 0 0 0 0 0 0 0 0 0 0 0 0 0 0 0 0 0 0 0 0 0 0 0 0 0 0 0 0 0 0 0 0 0 0 0 0 0 0 0 0 0 0 0 0 0 0 0 0 0 0 0 0 0 0-1 0-1 0-1 0 0 0 0 0 0 0 0 0 0 0 0 0l0 0c0 0-1 0-1 0h0c-5 0-10 0-15 0 0 0 0 0 0 0 0 0 0 0 0 0 0 0 0 0 0 0 0 0 0 0 0 0 0 0 0 0 0 0 0 0 0 0 0 0 0 0 0 0 0 0 0 0 0 0 0 0 0 0 0 0 0 0 0 0 0 0 0 0 0 0 0 0 0 0 0 0 0 0 0 0 0 0 0 0 0 0 0 0 0 0 0 0 0 0 0 0 0 0 0 0 0 0-1 0 0 0 0 0 0 0 0 0 0 0 0 0 0 0 0 0 0 0 0 0 0 0 0 0 0 0 0 0 0 0 0 0 0 0 0 0 0 0 0 0 0 0 0 0 0 0 0 0 0 0 0 0 0 0 0 0 0 0 0 0 0 0 0 0 0 0 0 0 0 0 0 0 0 0 0 0 0 0 0 0 0 0 0 0 0 0 0 0 0 0 0 0 0 0 0 0 0 0 0 0 0 0 0 0 0 0 0 0 0 0 0 0 0 0 0 0 0 0 0 0 0 0 0 0 0 0 0 0 0 0 0 0 0 0 0 0 0 0 0 0 0 0 0 0 0 0 0 0 0 0 0 0 0 0 0 0 0 0 0 0 0 0 0 0 0 0 0 0-2 0-5-1-7-1l0-10c13 1 26 2 39 2v9l-11 0 0 0z m-80-6c0 0-1-1-2-1 0 0 0 0 0 0 0 0 0 0 0 0 0 0 0 0 0 0 0 0 0 0 0 0 0 0 0 0 0 0 0 0 0 0 0 0 0 0 0 0 0 0 0 0 0 0 0 0 0 0 0 0 0 0 0 0 0 0 0 0 0 0 0 0 0 0 0 0 0 0 0 0 0 0 0 0 0 0 0 0 0 0 0 0 0 0 0 0 0 0 0 0 0 0 0 0-12-2-24-4-35-7l2-10c13 3 26 6 38 8l-3 10 0 0z m-77-20c-1 0-1 0-2 0 0 0 0 0 0 0 0 0 0 0 0 0 0 0 0 0 0 0 0 0 0 0 0 0 0 0 0 0 0 0 0 0 0 0 0 0 0 0 0 0 0 0 0 0 0 0 0 0 0 0 0 0 0 0 0 0 0 0 0 0 0 0 0 0 0 0 0 0 0 0 0 0 0 0 0 0-1 0 0 0 0 0 0 0 0 0 0 0 0 0 0 0 0 0 0 0 0 0 0 0 0 0 0 0 0 0 0 0 0 0 0 0 0 0 0 0 0 0 0 0 0 0 0 0 0 0l0 0c-11-4-22-9-33-14l4-9c12 5 24 10 36 14l-4 9 0 0z m-74-31c-4-3-8-5-12-7 0 0 0 0 0 0 0 0 0 0 0 0l0 0c-1 0-1-1-1-1 0 0 0 0 0 0 0 0 0 0 0 0 0 0 0 0 0 0 0 0 0 0 0 0 0 0 0 0 0 0 0 0 0 0 0 0 0 0 0 0 0 0 0 0 0 0 0 0 0 0 0 0 0 0 0 0 0 0 0 0 0 0 0 0 0 0 0 0 0 0 0 0 0 0 0 0 0 0 0 0 0 0 0 0 0 0 0 0 0 0 0 0 0 0 0 0 0 0 0 0 0 0 0 0 0 0 0 0 0 0 0 0 0 0 0 0 0 0 0 0 0 0 0 0 0 0 0 0 0 0 0 0 0 0 0 0 0 0 0 0 0 0 0 0 0 0 0 0 0 0 0 0 0 0 0 0 0 0 0 0 0 0 0 0 0 0 0 0 0 0 0 0 0 0 0 0 0 0 0 0 0 0 0 0 0 0 0 0 0 0 0 0 0 0 0 0 0 0 0 0 0 0 0 0 0 0 0 0 0 0 0 0 0 0 0 0 0 0 0 0 0 0 0 0 0 0 0 0 0 0 0 0 0 0 0 0 0 0 0 0 0 0 0 0 0 0 0 0 0 0 0 0 0 0-1 0-1 0 0 0 0 0 0 0 0 0 0 0 0 0 0 0 0 0 0 0 0 0 0 0 0 0 0 0 0 0 0 0 0 0 0 0 0 0 0 0 0 0 0 0 0 0 0-1 0-1 0 0 0 0 0 0 0 0 0 0 0 0l0 0c-4-2-8-4-11-7l0 0c0 0 0 0 0 0l0 0c-1 0-1 0-1 0 0 0 0 0 0 0 0 0 0 0 0 0 0 0 0 0 0 0 0 0 0 0 0 0 0 0 0 0 0 0 0 0 0 0 0 0 0 0 0 0 0 0 0 0 0 0 0 0 0 0 0 0 0 0 0 0 0 0 0 0 0 0 0 0 0 0 0 0 0 0 0 0 0 0 0 0 0 0 0 0 0 0 0 0 0 0 0 0 0 0 0 0 0 0 0 0 0 0 0 0 0 0 0 0 0 0 0 0 0 0 0 0 0 0 0 0 0 0 0 0 0 0 0 0 0 0 0 0 0 0 0 0 0 0 0 0 0 0 0 0 0 0 0 0 0 0 0 0 0 0 0 0 0 0 0 0 0 0 0 0 0 0 0 0 0 0 0 0-1-1-1-1-2-1l5-9c11 7 23 14 34 20l-11 6 0 0z m-67-44c-1-1-3-2-5-4 0 0 0 0 0 0 0 0 0 0 0 0 0 0 0 0 0 0 0 0 0 0 0 0 0 0 0 0 0 0 0 0 0 0 0 0 0 0 0 0 0 0 0 0 0 0 0 0 0 0 0 0 0 0 0 0 0 0 0 0 0 0 0 0 0 0 0 0 0 0 0 0 0 0 0 0 0 0 0 0 0 0 0 0 0 0 0 0 0 0 0 0 0 0 0 0 0 0 0 0 0 0 0 0 0 0 0 0-8-7-16-13-24-21l7-7c9 9 19 17 30 25l-8 7 0 0z m-59-54c-2-2-4-4-6-6 0 0 0 0 0 0 0 0 0 0 0 0 0 0 0 0 0 0 0 0 0 0 0 0 0 0 0 0 0 0 0 0 0 0 0 0 0 0 0 0 0 0 0 0 0-1 0-1 0 0 0 0 0 0 0 0 0 0 0 0 0 0 0 0 0 0 0 0 0 0 0 0 0 0 0 0 0 0 0 0 0 0 0 0 0 0 0 0 0 0 0 0 0 0 0 0 0 0 0 0 0 0 0 0 0 0 0 0 0 0 0 0 0 0 0 0 0 0 0 0 0 0 0 0 0 0 0 0 0 0 0 0 0 0 0 0 0 0 0 0 0 0 0 0 0 0 0 0 0 0 0 0 0 0 0 0 0 0 0 0 0 0 0 0 0 0 0 0 0 0 0 0 0 0 0 0 0 0 0 0 0 0 0 0 0 0 0 0 0 0 0 0 0 0 0 0 0 0 0 0 0 0 0 0 0 0 0 0 0 0 0 0 0 0 0 0 0 0 0 0 0 0 0 0 0 0 0 0 0 0 0 0-1 0l0 0c0 0 0 0 0 0 0 0 0 0 0 0 0 0 0 0 0 0 0 0 0 0 0 0 0 0 0 0 0 0l0 0c0 0 0 0 0 0 0 0 0 0 0 0 0 0 0 0 0 0 0 0 0 0 0 0 0 0 0-1 0-1 0 0 0 0 0 0-5-4-9-9-13-14l0 0c0 0 0 0 0 0l0 0c0 0 0 0 0 0l0 0c0 0 0-1 0-1 0 0 0 0 0 0 0 0 0 0 0 0 0 0 0 0 0 0 0 0 0 0 0 0 0 0 0 0 0 0 0 0 0 0 0 0 0 0 0 0 0 0 0 0 0 0 0 0 0 0 0 0 0 0 0 0 0 0 0 0 0 0 0 0 0 0 0 0 0 0 0 0 0 0 0 0 0 0 0 0 0 0 0 0 0 0 0 0 0 0 0 0 0 0 0 0 0 0 0 0 0 0 0 0 0 0 0 0 0 0 0 0 0 0 0 0 0 0 0 0-1-1-1-1-2-2l8-7c8 10 16 20 25 30l-11 2 0 0z m-49-62c-6-9-12-18-17-27 0 0 0 0 0 0 0 0 0 0 0 0 0 0 0 0 0 0 0 0 0 0-1 0l0 0c0 0 0 0 0 0 0 0 0 0 0 0 0 0 0 0 0 0 0 0 0 0 0 0 0 0 0 0 0 0 0 0 0 0 0 0 0 0 0 0 0 0 0 0 0 0 0 0 0 0 0 0 0 0 0 0 0 0 0 0 0 0 0 0 0 0 0 0 0 0 0 0 0 0 0 0 0 0 0 0 0 0 0 0 0 0 0 0 0 0 0 0 0 0 0 0 0 0 0 0 0 0 0 0 0 0 0 0 0 0 0 0 0 0 0 0 0 0 0 0 0 0 0 0 0 0 0 0 0 0 0 0 0 0 0 0 0 0 0 0 0 0 0 0 0 0 0 0 0 0 0-1 0-1 0-1 0 0 0 0 0 0-1-1-1-3-2-4l9-5c6 11 13 23 20 33l-9 4 0 0z m-39-70c-5-11-10-22-14-33 0 0 0 0 0 0 0 0 0 0 0 0 0 0 0 0 0 0 0 0 0 0 0 0 0 0 0 0 0 0 0 0 0 0 0 0 0 0 0 0 0 0 0 0 0 0 0 0 0 0 0 0 0 0 0 0 0 0 0 0 0 0 0 0 0 0 0 0 0 0 0 0 0 0 0 0 0 0 0 0 0 0 0 0 0 0 0 0 0 0 0 0 0 0 0 0 0 0 0 0 0-1 0 0 0 0 0 0 0 0 0 0 0 0 0 0 0 0 0 0 0 0 0 0 0 0 0 0 0 0 0 0 0 0 0 0 0 0 0 0 0 0 0 0 0 0 0-1-1-2l10-3c4 12 9 24 14 36l-9 3 0 0z m-27-75c0-1 0-1 0-2l0 0c0 0 0 0 0 0l0 0c0 0 0 0-1 0l0 0c0 0 0 0 0 0l0 0c0 0 0 0 0 0 0 0 0 0 0 0 0-1 0-1 0-1l0 0c0 0 0 0 0 0 0 0 0 0 0 0 0 0 0 0 0 0l0 0c0 0 0 0 0 0 0 0 0 0 0 0 0 0 0 0 0-1 0 0 0 0 0 0 0 0 0 0 0 0 0 0 0 0 0 0 0 0 0 0 0 0 0 0 0 0 0 0 0 0 0 0 0 0 0 0 0 0 0 0 0 0 0 0 0 0 0 0 0 0 0 0 0 0 0 0 0 0 0 0 0 0 0 0 0 0 0 0 0 0 0 0 0 0 0 0 0 0 0 0 0 0 0 0 0 0 0 0 0 0 0 0 0 0 0 0 0 0 0 0 0 0 0 0 0 0 0 0 0 0 0 0 0 0 0 0 0 0 0 0 0 0 0 0 0 0 0 0 0 0 0 0 0 0 0 0 0 0 0 0 0 0 0 0 0 0 0 0 0 0 0 0 0 0 0 0 0 0 0 0 0 0 0 0 0 0 0 0 0 0 0 0 0 0 0 0 0-1 0 0 0 0 0 0 0 0 0 0 0 0 0 0 0 0 0 0 0 0 0 0 0 0 0 0 0 0 0 0 0 0 0 0 0 0 0 0 0 0 0 0 0 0 0 0 0 0 0 0 0 0 0 0 0 0 0 0 0 0 0 0 0 0 0 0 0 0 0 0 0 0 0 0 0 0 0 0 0 0 0 0 0 0 0 0 0 0 0 0 0 0 0 0 0 0 0 0 0 0 0 0 0 0 0 0 0 0 0 0 0 0 0 0 0 0 0 0 0 0 0 0 0 0 0 0 0 0 0 0 0 0 0 0 0 0 0 0 0 0 0 0 0 0 0 0 0 0 0 0 0 0 0 0 0 0 0 0 0 0 0 0 0 0 0 0 0 0 0 0 0 0 0 0 0 0 0 0 0 0 0 0 0 0 0 0 0 0 0 0 0 0 0 0 0 0 0 0 0 0 0 0 0 0 0 0 0 0 0 0 0 0 0 0 0 0 0 0 0 0 0 0 0 0 0 0 0 0 0-1 0-1 0-1 0 0 0 0 0 0 0 0 0 0 0 0 0 0 0 0 0 0 0 0 0 0 0 0 0 0 0 0 0 0 0 0 0 0 0-1 0 0 0 0 0 0 0 0 0 0 0 0 0 0 0 0 0 0 0 0 0 0 0 0 0 0 0 0 0 0 0 0 0 0 0 0l0 0c0 0 0 0 0-1l0 0c-1-2-2-5-2-8l0 0c0 0 0 0 0 0 0 0 0 0 0 0 0 0 0 0 0 0 0 0 0 0 0 0 0 0 0 0 0 0 0 0 0 0 0 0 0-1 0-1 0-1 0 0 0 0 0 0 0 0 0 0 0 0 0 0 0 0 0 0 0 0 0 0 0 0 0 0 0 0 0 0 0 0 0 0 0 0 0 0 0 0 0 0 0 0 0 0 0 0 0 0 0 0 0 0 0 0 0 0 0 0 0 0 0 0 0 0 0 0 0 0 0 0 0 0 0 0 0 0 0 0 0 0 0 0 0 0 0 0 0 0 0 0 0 0 0 0 0 0 0 0 0 0 0 0 0 0 0-1 0 0 0 0 0 0 0 0 0 0 0 0 0 0 0 0 0 0 0 0 0 0 0 0 0 0 0 0 0 0 0 0 0 0 0 0 0 0 0 0 0 0 0 0 0 0 0 0 0 0 0 0 0 0 0 0 0 0 0 0 0 0 0 0 0 0 0 0 0 0 0 0 0 0 0 0 0 0 0 0 0 0 0 0 0 0 0 0 0 0 0 0 0 0 0 0 0 0 0 0 0 0l0 0c0 0 0 0 0-1 0 0 0 0 0 0 0 0 0 0 0 0l0 0c-1-3-1-7-2-11l10-2c2 13 5 26 8 39l-13-7 0 0z m-14-79c-1-6-1-13-1-19l0 0c0 0 0 0 0 0 0 0 0 0 0 0 0 0 0 0 0-1 0 0 0 0 0 0 0 0 0 0 0 0 0 0 0 0 0 0 0 0 0 0 0 0 0 0 0 0 0 0 0 0 0 0 0 0 0 0 0 0 0 0 0 0 0 0 0 0 0 0 0 0 0 0 0 0 0 0 0-1 0 0 0 0 0 0 0 0 0 0 0 0 0 0 0 0 0 0 0 0 0 0 0 0 0 0 0 0 0 0 0 0 0 0 0 0 0 0 0 0 0 0 0 0 0 0 0 0 0 0 0 0 0 0 0 0 0 0 0 0 0 0 0 0 0 0 0 0 0 0 0 0 0 0 0 0 0 0 0 0 0 0 0 0 0 0 0 0 0 0 0 0 0 0 0 0 0 0 0 0 0 0 0 0 0 0 0 0 0 0 0 0 0 0 0 0 0 0 0 0 0 0 0 0 0 0l0 0c0 0 0 0 0 0l0 0c0 0 0 0 0 0 0 0 0 0 0 0 0 0 0 0 0 0l0 0c0 0 0 0 0 0l0 0c0 0 0-1 0-1l0 0c-1-5-1-10-1-15l10 0c1 13 1 26 2 39l-10-2 0 0z m9-79l-10-1c0-11 1-22 3-33 0 0 0 0 0 0 0 0 0 0 0 0 0 0 0 0 0 0 0 0 0 0 0 0 0 0 0 0 0 0 0 0 0 0 0 0 0 0 0 0 0 0 0 0 0 0 0 0 0 0 0 0 0 0 0 0 0 0 0 0 0 0 0 0 0 0 0 0 0 0 0 0 0 0 0 0 0 0 0 0 0 0 0 0 0 0 0 0 0-1l0 0c0 0 0 0 0 0l0 0c0-1 0-3 1-5l10 2c-2 12-3 25-4 38l0 0z m11-78l-9-2c0-1 0-2 0-3 0 0 0 0 0 0 0 0 0 0 0 0l0 0c0 0 0 0 0 0 0 0 0 0 0 0 0 0 0 0 0 0 0 0 0 0 0 0 0 0 0 0 0 0 0 0 0 0 0 0 0 0 0 0 0 0 0 0 0 0 0 0 0 0 0 0 0 0 0 0 0 0 0 0 0 0 0 0 0 0 0 0 0 0 0 0 0 0 0 0 0-1 0 0 0 0 0 0 0 0 0 0 0 0 0 0 0 0 0 0 0 0 0 0 0 0 0 0 0 0 0 0 0 0 0 0 0 0 0 0 0 0 0 0 0 0 0 0 0 0 0 0 0 0 0 0 0 0 0 0 0 0 0 0 0 0 0 0 0 0 0 0 0 0 0 0 0 0 0 0 0 0 0 0 0 0 0-1 0-1 1-1 0 0 0 0 0 0 2-11 5-22 9-32l9 3c-3 11-7 24-10 36l0 0z m24-74l-9-4c0 0 0-1 0-1l0 0c0 0 0 0 0 0 0 0 0 0 0 0 0 0 0 0 0 0 0 0 0 0 0 0 0 0 0 0 0 0 0 0 0 0 0 0 0 0 0 0 0 0 0 0 0 0 0 0 0 0 0 0 0 0 0 0 0 0 0 0 0 0 0 0 0 0 0 0 0 0 0 0 0 0 0 0 0 0 0 0 0 0 0 0 0 0 0 0 0 0 4-8 7-16 11-23 0 0 0 0 0 0 0 0 0 0 0 0 0 0 0 0 0 0 0-1 0-1 0-1 0 0 0 0 0 0 0 0 0 0 0 0 0 0 0 0 0 0 0 0 0 0 0 0 0 0 0 0 0 0 0 0 0 0 0 0 0 0 0 0 0 0 0 0 0 0 0 0 0 0 0 0 0 0 0 0 0 0 0 0 0 0 0 0 0 0 0 0 0 0 0 0 0 0 0 0 0 0 0 0 0 0 0 0 0 0 0 0 0 0 0 0 0 0 0 0 0 0 0 0 0 0 0 0 0 0 0 0 0 0 0 0 0 0 0 0 0 0 0 0 0 0 0 0 0 0 0 0 0 0 0 0 0 0 0 0 0 0 0 0 0 0 0 0 0 0 0 0 0 0 0 0 0 0 0 0 0 0 0 0 0 0 0 0 0 0 0 0 0 0 0 0 0 0 0 0 0 0 0 0 0 0 0 0 0 0 0 0 0 0 0 0 0 0 0 0 0 0 0 0 0 0 0 0 0 0 0 0 0 0l0 0c0 0 0-1 1-1l0 0c0 0 0 0 0 0l0 0c0 0 0 0 0 0 0 0 0 0 0 0 0 0 0 0 0 0l0 0c0-1 0-1 0-1l0 0c1-2 2-3 3-5l9 5c-4 7-10 19-15 31l0 0z m36-70l-8-5c0 0 0 0 0 0 0 0 0 0 0 0 0 0 0 0 0 0 0 0 0 0 0 0 0 0 0 0 0 0 0 0 0 0 0 0 0 0 0 0 0 0 0 0 0 0 0 0 0 0 0 0 0 0 0 0 0 0 0 0 0 0 0-1 1-1 0 0 0 0 0 0 0 0 0 0 0 0 0 0 0 0 0 0 0 0 0 0 0 0 0 0 0 0 0 0 0 0 0 0 0 0 0 0 0 0 0 0 0 0 0 0 0 0 0 0 0 0 0 0 0 0 0 0 0 0 0 0 0 0 0 0 0 0 0 0 0 0 0 0 0 0 0 0 0 0 0 0 0 0 0 0 0 0 0 0 0 0 0 0 0 0 0 0 0 0 0 0 0 0 0 0 0 0 0 0 0 0 0 0 0 0 0 0 0 0 0 0 0 0 0 0 0 0 0 0 0 0 0 0 0 0 0 0 0 0 0 0 0 0 0 0 0 0 0 0 0 0 0 0 0 0 0 0 0 0 0 0 0 0 0 0 0 0 0 0 0 0 0 0 0 0 0 0 0 0 0 0 0 0 0 0 0 0 0 0 0 0 0 0 0 0 0 0 0 0 0 0 0 0 0 0 0 0 0 0 0 0 0 0 0 0 0 0 0 0 0 0 0 0 0 0 0 0 0 0 0 0 0 0 0 0 0 0 0 0 0 0 0 0 0 0l0 0c0 0 0 0 0 0 0 0 0 0 0 0 0 0 0 0 0 0 0 0 0 0 0 0 0 0 1-1 1-1 0 0 0 0 0 0 0 0 0 0 0 0 0 0 0 0 0 0 0 0 0 0 0 0 0 0 0 0 0 0 0 0 0 0 0 0 0 0 0 0 0 0 0 0 0 0 0 0 0 0 0 0 0 0 0 0 0 0 0 0 0 0 0 0 0 0 0 0 0 0 0 0 0 0 0 0 0 0 0 0 0 0 0 0l0 0c0 0 0 0 0 0 0 0 0 0 0 0 0 0 0 0 0 0 0 0 0 0 0 0 0 0 0 0 0 0 0 0 0 0 0 0 0 0 0 0 0 0 0 0 0 0 0 0 0 0 0 0 0 0 0 0 0 0 0 0 0 0 0 0 0 0 0 0 0 0 0 0 0 0 0 0 0 0 0 0 0 0 0 0 0 0 0 0 0 0 0 0 0 0 0 0 0 0 0 0 0 0 0 0 0 0 0 0 0 0 0 0 0 0 0 0 0 0 0 0 0 0 0 0 0 0 0 0 0 0 0 0 0 0 0 0 0 0 0 0 0 0 0 0 0 0 0 0 0 0 0 0 0 0 0 0 0 0 0 0 0 0 0 0 0 0 0 0 0 0 0 0 0 0 0 0 0 0 0 0 0 0 0 0 0 0 0 0 0 0 0 0 0 0 0 0 0 0 0 0 0 0 0 0 0 0 0 0 0 0 0 0 0 0 0 0 0 0 0 0 0 0 0 0 0 0 0 0 0 0 0 0 0 0 0 0 0 0 0 0 0 0 0 0 0 0 0 0 0 0 0 0 0 0 0 0 0 0 0 0 0-1 0-1 0 0 0 0 0 0 0 0 0 0 0 0 0 0 0 0 0 0 0 0 0 0 0 0 0 0 0 0 0 0 0 0 0 0 0 0 0 0 0 0 0 0 0 0 0 0 1 0 0 0 0 0 0 0 0 0 0 0 0 0 0 0 0 0 0 0 0 0 0 0 0 0 0 0 0 0 0 0 0 0 0 0 0 0 0 0 0 0 0 0 5-7 10-14 15-21l8 6c-3 2-11 12-18 23l0 0z m47-62l-7-7c0-1 1-1 1-2l0 0c0 0 1 0 1 0l0 0c0 0 0 0 0-1l0 0c0 0 0 0 0 0 0 0 0 0 0 0 0 0 0 0 0 0 0 0 0 0 0 0 0 0 0 0 0 0 0 0 0 0 0 0 0 0 0 0 0 0l0 0c0 0 0-1 0-1 0 0 0 0 0 0 0 0 0 0 0 0 0 0 0 0 0 0 0 0 0 0 0 0 0 0 0 0 0 0 0 0 1 0 1 0 0 0 0 0 0 0 0 0 0 0 0 0 0 0 0 0 0 0 0 0 0 0 0 0 0 0 0 0 0 0 0 0 0 0 0 0 0 0 0 0 0 0 0 0 0 0 0 0 0 0 0 0 0 0 0 0 0 0 0 0 0 0 0 0 0 0 0 0 0 0 0 0 0 0 0 0 0 0 0 0 0 0 0 0 0 0 0 0 0 0 0 0 0 0 0 0 0 0 0 0 0 0 0 0 0 0 0 0 0 0 0 0 0 0 0 0 0 0 0 0 0 0 0 0 0 0 0 0 0 0 0 0 0 0 0 0 0 0 0 0 0 0 0 0 0 0 0 0 0 0 0 0 0 0 0 0 0 0 0 0 0 0 0 0 0 0 0 0 0 0 0 0 0 0 0 0 0 0 0 0 0 0 0 0 0 0 0 0 0 0 0 0 0 0 0 0 0 0 0 0 0 0 0 0 0 0 0 0 0 0 0 0 0 0 0 0 0 0 0 0 0 0 0 0 0 0 0 0 0 0 0 0 0 0 0 0 0 0 0 0 0 0 0 0 0 0 0 0 0 0 0 0 0 0 0 0 0 0 0 0 0 0 0 0 0 0 0 0 0 0 0 0 0 0 0 0 0 0 0 0 0 0 0 0 0 0 0 0 0 0 0 0 0 0 0 0 0 0 0 0 0 0 0 0 0 0 0 0 0 0 0 0 0 0 0 0 0 0 0 0 0 0 0 0 0 0 0 0 0 0 0 0 0 0 0 0 0 0 0 0 0 0 0 0 0 0 0 0 0 0 0 0 0 0 0 0 0 0 0 0 0 0 0 0 0 0 0 0 0 0 0 0 0 0 0 0 0 0 0 0 0 0 0 0 0 0 0 0 0 0 0 0 0 0 0 0 0 0 0 0 0 0 0 0 0 0 0 0 0 0 0 0 0 0 0 0 0 0 0 0 0 0 0 0 0-1 0 0 0 0 0 0 0 0 0 0 0 0 0 0 0 0 0 0 0 0 0 0 0 0 0 0 0 0 0 0 0 0 0 0 0 0 0 0 0 0 0 0 0 0 1 0 1 0 0 0 0 0 0 0 0 0 0 0 0 0 0 0 0 0 0 0 0 0 0 0 0 0 0 0 0 0 0 0 0 0 0 0 0 0 0 0 0 0 0 0 0 0 0 0 0 0 0 0 0 0 0 0 0 0 0 0 0 0 0 0 0 0 0 0 0 0 0 0 0 0 0 0 0 0 0 0 0 0 0 0 0 0 0 0 0 0 0 0 0 0 0 0 0 0 0 0 0 0 0 0 0 0 0 0 0 0 0 0 0 0 0 0 0 0 0 0 0 0 0 0 0 0 0 0 0 0 0 0 0 0 0 0 0 0 0 0 0 0 0 0 0 0 0 0 0 0 0 0 0 0 0 0 0 0 0 0 0 0 0 0 0 0 0 0 0 0 0 0 0 0 0 0 0 0 0 0 0 0 0 0 0 0 0 0 0 0 0 0 0 0 0 0 0 0 0 0 0 0 0 0 0 0 0 0 0 0 0 0 0 0 0 0 0 0 0 0 0 0 0 0 0 0 0 0 0 0 0 0 0 0 0 0 0 0 0 0 0 0 0 0 0 0 0 0 0 0 0 0 0 0 0 0 0 0 0 0 0 0 0 0 0 0 0 0 0 0 0 0 0 0 0 0 0 0 0 0 0 0 0 0 0 0 0 0 0 0 0 0 0 0 0 0 0 0 0 0 0 0 0 0 0 0 0 0 0 0 0 0 0 0 0 0 0 0 0 0 0 0 0 0 0 0 0 0 0 0 0 0 0 0 0 0 0 0 0 0 0 0 0 0 0 0 0 0 0 0 0 0 0 0 0 0 0 0 0 0 0 0 0 0 0 0 0 0 0 0 0 0 0 0 0 0 0 0 0 0 0 0 0 0 0 0 0 0 0 0 0 0 0 0 0 0 0 0 0 0 0 0 0 0 0 0 0 0 0 0 0 0 0 0 0 0 0 0 0 0 0 0 0 0 0 0 0 0 0 0 0 0 0 0 0 0 0 0 0 0 0 0 0 0 0 0 0 0 0 0 0 0 0 0 0 0 0 0 0 0 0 0 0 0 0 0 0 0 0 0 0 0 0 0 0 0 0 0 0 0 0 0 0 0 0 0 0 0 0 0 0 0 0 0 0 0 0 0 0 0 0 0 0 0 0 0 0 0 0 0 0 0 0 0 0 0 0 0 0 0 0 0 0 0 0 0 0 0 0 0 0 0 0 0 0 0 0 0 0 0 0 0 0 0 0 0 0 0 0 0 0 0 0 0 0 0 0 0 0 0 0 0 0 0 0 0 0 0 0 0 0 0 0 0 0 0 0 0 0 0 0 0 0 0 0 0 0 0 0 0 0 0 0 0 0 0 0 0 0 0 0 0 0 0 0 0 0 0 0 0 0 0 0 0 0 0 0 0 0 0 0 0 0 0 0 0 0 0 0 0 0 0 0 0 0 0 0 0 0 0 0 0 0 0 0 0 0 0 0 0 0 0 0 0 0 0 0 0 0 0 0 0 0 0 0 0 0 0 0 0 0 0 0 0 0 0 0 0 0 0 0 0 0 0 0 0 0 0 0 0 0 0 0 0 0 0 0 0 0 0 0 0 0 0 0 0 0 0 0 0 0 0 0 0 0 0 0 0 0 0 0 0 0 0 0 0 0 0 0 0 0 0 0 0 0 0 0 0 0 0 0 0 0 0 0 0 0 0 0 0 0 0 0 0 0 0 0 0 0 0 0 0 0 0 0 0 0 0 0-1 0 0 0 0 0 0 0 0 0 0 0 0 0 0 0 0 0 0 0 0 0 0 1 0 0 0 0 0 0 0 0 0 0 0 0 0 0 0 0 0 0 0 0 0 0 0 0 0 0 0 0 0 0 0 0 0 0 0 0 0 0 0 0 0 0 0 0 0 0 0 0-1 0 0 0 0 0 0 0 0 0 0 0 0 0 0 0 0 0 0 0 0 0 0 1 0l0 0c0 0 0 0 0 0 0 0 0 0 0 0 0 0 0-1 0-1 0 0 0 0 0 0 2-1 3-2 4-3l7 7c-2 2-4 4-6 6 10-10 3-3-4 5l0 0z m56-55l-6-7c10-9 21-17 32-24l6 8c-11 7-21 15-32 23l0 0z m65-44l-5-9c8-5 17-9 26-13 0 0 0 0 0 0 0 0 0 0 0 0 0 0 0 0 0 0 0 0 0 0 0-1 0 0 0 0 0 0 0 0 0 0 0 0 0 0 0 0 0 0 0 0 0 0 0 0 0 0 0 0 0 0 0 0 0 0 0 0 0 0 0 0 0 0 0 0 0 0 0 0 0 0 0 0 0 0 0 0 0 0 0 0 0 0 0 0 0 0 0 0 0 0 0 0 0 0 0 0 0 0 0 0 0 0 0 0 0 0 0 0 0 0 0 0 0 0 0 0 0 0 0 0 1 0 0 0 0 0 0 0 0 0 0 0 0 0 0 0 0 0 0 0 2-1 5-2 7-3l4 9c-10 4-22 10-33 17l0 0z m71-33l-4-10c5-1 9-3 13-4 0 0 0 0 0 0 1 0 1 0 2-1h0c0 0 0 0 1 0 0 0 0 0 0 0 0 0 1 0 2-1 0 0 0 0 0 0 0 0 0 0 0 0 0 0 0 0 0 0 0 0 0 0 0 0 0 0 0 0 0 0 0 0 0 0 0 0 0 0 0 0 0 0 0 0 0 0 1 0 0 0 0 0 0 0 0 0 0 0 0 0 0 0 0 0 0 0 0 0 0 0 0 0 0 0 0 0 0 0 0 0 0 0 0 0 0 0 0 0 0 0 1 0 1 0 1-1 0 0 0 0 0 0 0 0 0 0 0 0 0 0 0 0 0 0 0 0 0 0 0 0 0 0 0 0 0 0 0 0 0 0 0 0 0 0 0 0 0 0 0 0 0 0 1 0 0 0 0 0 0 0 0 0 0 0 0 0 0 0 0 0 0 0 0 0 0 0 0 0 0 0 0 0 0 0 0 0 0 0 0 0 0 0 0 0 0 0 0 0 0 0 0 0 0 0 0 0 0 0 0 0 0 0 0 0 0 0 0 0 0 0 0 0 0 0 0 0 0 0 0 0 0 0 0 0 1 0 1 0 0 0 0 0 0 0 0 0 0 0 0 0 0 0 0 0 0 0 0 0 0 0 0 0 0 0 0 0 0 0 0 0 0 0 0 0 0 0 0 0 0 0 0 0 0 0 0 0 0 0 0 0 0 0 0 0 0 0 0 0 0 0 0 0 0 0 0 0 0 0 0 0 0 0 0 0 0 0 0 0 0 0 0 0 0 0 0 0 0 0 0 0 0 0 0 0 0 0 0 0 0 0 0 0 0 0 0 0 0 0 0 0 0 0 0 0 0 0 0 0 0 0 0 0 0 0 0 0 0 0 0 0 0 0 0 0 0 0 0 0 0 0 0 0 0 0 0 0 0 0 0 0 0 0 0 0 0 0 0 0 0 0 0 0 0 0 0 0 0 0 0 0 0 0 0 0 0 0 0 0 0 0 0 0 0 0 0 0 0 0 0 0 0 0 0 0 0 0 0 0 0 0 0 0 0 0 0 0 0 0 0 0 0 0 0 0 0 0 0 0 0 0 0 0 0 0 0 0 0 0 0 0 0 0 0 0 0 0 0 0 0 0 0 0 0 0 0 0 0 0 0 0 0 0 0 0 0 0 0 0 0 0 0 0 0 0 0 0 0 0 0 0 0 0 0 0 0 0 0 0 0 0 0 0 0 0 0 0 0 0 0 0 0 0 0 0 0 0 0 0 0 0 0 0 0 0 0 0 0 0 0 0 0 0 0 0 0 0 0 0 0 0 0 0 0 0 0 0 0 0 0 0 0 0 0 0 0 0 0 0 0 0 0 0 0 0 0 0 0 0 0 0 0 0 0 0 0 0 0 0 0 0 0 0 0 0 0 0 0 0 0 0 0 0 0 0 0 0 0 0 0 0 0 0 0 0 0 0 0 0 0 0 0 0 0 0 0 0 0 0 0 0 0 0 0 0 0 0 0 0 0 0 0 0 0 0 0 0 0 0 0 0 1 0 1 0 0 0 0 0 0 0 0 0 0 0 0 0 0 0 0 0 0 0 0 0 0 0 0 0 0 0 0 0 0 0 0 0 0 0 0 0 0 0 0 0 0 0 0 0 0 0 0 0 0 0 0 0 0 0 0 0 0 0 0 0 0 0 0 0 0 0 0 0 0 0 0 0l0 0c3 0 5-1 7-2l3 10c-5 0-17 4-29 9l0 0z m75-22l-2-9c9-2 18-4 27-5l0 0c0 0 0 0 0 0 0 0 0 0 0 0 0 0 0 0 0 0 0 0 0 0 0 0 0 0 0 0 0 0l0 0c0 0 0 0 0 0 0 0 0 0 0 0 0 0 0 0 0 0 0 0 0 0 0 0 0 0 0 0 0 0 0 0 0 0 0 0 0 0 0 0 0 0 0 0 0 0 0 0 0 0 0 0 0 0 0 0 0 0 0 0 0 0 0 0 0 0 0 0 0 0 0 0 0 0 0 0 0 0 0 0 0 0 0 0 0 0 0 0 0 0 0 0 0 0 0 0 0 0 0 0 0 0 0 0 0 0 0 0 0 0 0 0 0 0 4 0 7-1 11-1l1 10c-11 1-24 3-37 5l0 0z m117-8c-8 0-17 0-25 0-5 0-9 0-14 0l0-10c4 0 7 0 11 0 0 0 0 0 0 0 0 0 0 0 1 0 0 0 0 0 0 0 0 0 0 0 0 0l0 0c0 0 0 0 0 0 0 0 0 0 0 0 0 0 0 0 1 0 0 0 0 0 0 0 0 0 0 0 0 0 0 0 0 0 0 0 0 0 0 0 0 0 0 0 0 0 0 0 0 0 0 0 0 0 0 0 0 0 0 0 0 0 0 0 0 0 0 0 0 0 0 0 0 0 0 0 0 0 0 0 0 0 0 0 0 0 0 0 0 0 0 0 0 0 0 0 0 0 0 0 1 0 0 0 0 0 0 0 0 0 0 0 0 0 0 0 0 0 0 0 0 0 0 0 0 0 0 0 0 0 0 0 0 0 0 0 0 0 0 0 0 0 0 0 0 0 0 0 0 0 0 0 0 0 0 0 0 0 0 0 0 0 0 0 0 0 0 0 0 0 0 0 0 0 0 0 0 0 0 0 0 0 0 0 0 0 0 0 0 0 0 0 0 0 0 0 0 0 0 0 0 0 0 0 0 0 0 0 0 0 0 0 0 0 0 0 0 0 0 0 0 0 0 0 0 0 0 0 0 0 0 0 0 0 0 0 0 0 0 0 0 0 0 0 0 0 0 0 0 0 0 0 0 0 0 0 0 0 0 0 0 0 0 0 0 0 0 0 0 0 0 0 0 0 0 0 0 0 0 0 0 0 0 0 0 0 0 0 0 0 0 0 0 0 0 0 0 0 0 0 0 0 0 0 0 0 0 0 0 0 0 0 0 0 0 0 0 0 0 0 0 0 0 0 0 0 0 0 0 0 0 0 0 0 0 0 0 0 0 0 0 0 0 0 0 0 0 0 0 0 0 0 0 0 0 0 0 0 0 0 0 0 0 0 0 0 0 0 0 0 0 0 0 0 0 0 0 0 0 0 0 0 0 0 0 0 0 0 0 0 0 0 0 0 0 0 0 0 0 0 0 0 0 0 0 0 0 0 0 0 0 0 0 0 0 0 0 0 0 0 0 0 0 0 0 0 0 0 0 0 0 0 0 0 0 0 0 0 0 0 0 0 0 0 0 0 0 0 0 0 0 0 0 0 0 0 0 0 0 0 0 0 0 0 0 0 0 0 0 0 1 0 1 0 0 0 0 0 0 0 0 0 0 0 0 0 0 0 0 0 0 0 0 0 0 0 0 0 0 0 0 0 0 0 0 0 0 0 0 0 0 0 0 0 0 0 0 0 0 0 0 0 0 0 0 0 0 0 0 0 0 0 0 0 0 0 0 0 0 0 0 0 0 0 0 0 0 0 0 0 0 0 0 0 0 0 0 0 0 0 0 0 0 0 0 0 0 0 0 0 0 0 0 0 0 0 0 0 0 0 0 0 0 0 0 0 0 0 0 0 0 0 0 0 0 0 0 0 0 0 0 0 0 0 0 0 0 0 0 0 0 0 0 0 0 0 0 0 0 0 0 0 0 0 0 0 0 0 0 0 0 0 0 0 0 0 0 0 0 0 0 0 0 0 0 0 0 0 0 0 0 0 0 0 0 0 0 0 0 0 0 0 0 0 0 0 0 0 0 0 0 0 0 0 0 0 0 0 0 0 0 0 0 0 0 0 0 0 0 0 0 0 0 0 0 0 0 0 0 0 0 0 0 0 0 0 0 0 0 0 0 0 0 0 0 0 0 0 0 0 0 0 0 0 0 0 0 0 0 0 0 0 0 0 0 0 0 0 0 0 0 0 0 0 0 0 0 0 0 0 0 0 0 0 0 0 0 0 0 0 0 0 0 0 0 0 0 0 0 0 0 0 0 0 0 0 0 0 0 0 0 0 0 0 0 0 0 0 0 0 0 0 0 0 0 0 0 0 0 0 0 0 0 0 0 0 0 0 0 0 0 0 1 0 1 0l0 0c0 0 0 0 0 0 0 0 0 0 0 0 0 0 0 0 0 0 0 0 0 0 0 0 0 0 0 0 0 0 0 0 0 0 0 0 0 0 0 0 0 0 0 0 0 0 0 0 0 0 0 0 0 0 0 0 0 0 0 0 0 0 0 0 0 0 0 0 0 0 0 0 0 0 0 0 0 0 0 0 0 0 0 0 4 0 8 0 12 0l11 10 0 0z m78 11c-13-3-26-5-39-7l1-10c1 0 1 0 1 0 0 0 0 0 0 0 0 0 0 0 0 0 0 0 0 0 0 0 0 0 0 0 0 0 0 0 0 0 0 0 0 0 0 0 0 0 0 0 0 0 0 0 0 0 0 0 0 0 0 0 0 0 0 0 0 0 0 0 0 0 0 0 0 0 0 0 0 0 0 0 0 0 0 0 0 0 0 0 0 0 0 0 0 0 0 0 0 0 0 0 0 0 0 0 0 0 0 0 0 0 0 0 0 0 0 0 0 0 1 0 1 0 1 0 0 0 0 0 0 0 0 0 0 0 0 0l0 0c0 0 0 0 0 0l0 0c12 2 24 4 36 6l0 11 0 0z m75 23c-12-5-25-10-37-13l3-10c12 4 25 8 37 13l-3 10 0 0z m70 35c-11-7-23-13-35-19l5-9c0 0 1 0 2 1l0 0c0 0 0 0 0 0 0 0 0 0 0 0 0 0 0 0 0 0l0 0c0 0 0 0 0 0l0 0c0 0 0 0 0 0 0 0 0 0 0 0 0 0 0 0 0 0 0 0 0 0 0 0 0 0 0 0 0 0 0 0 0 0 0 0 0 0 0 0 0 0 0 0 0 0 0 0 0 0 0 0 0 0 0 0 0 0 0 0 0 0 0 0 0 0 0 0 0 0 0 0 0 0 0 0 0 0l0 0c0 0 1 0 1 1 0 0 0 0 0 0 0 0 0 0 0 0 0 0 0 0 0 0 0 0 0 0 0 0 0 0 0 0 0 0 0 0 0 0 0 0 0 0 0 0 0 0 0 0 0 0 0 0 0 0 0 0 0 0 0 0 0 0 0 0 0 0 0 0 0 0 0 0 0 0 0 0 0 0 0 0 0 0 0 0 0 0 0 0 0 0 0 0 0 0 0 0 0 0 0 0 0 0 0 0 0 0 0 0 0 0 0 0 0 0 0 0 0 0 0 0 0 0 0 0 0 0 0 0 0 0 0 0 0 0 0 0 0 0 0 0 0 0 0 0 0 0 0 0 0 0 0 0 0 0 0 0 0 0 0 0 0 0 0 0 0 0 0 0 0 0 0 0 0 0 0 0 0 0 0 0 0 0 0 0 0 0 0 0 0 0 0 0 0 0 0 0 0 0 0 0 0 0 0 0 0 0 0 0 0 0 0 0 0 0 0 0 0 0 0 0 0 0 0 0 0 0 0 0 0 0 0 0 0 0 0 0 0 0 0 0 0 0 0 0 0 0 0 0 0 0 0 0 0 0 0 0 0 0 0 0 0 0 0 0 0 0 0 0 0 0 0 0 0 0 0 0 0 0 0 0 0 0 0 0 0 0 0 0 0 0 0 0 0 0 0 0 0 0 0 0 0 0 0 0 0 0 0 0 0 0 0 0 0 0 0 0 0 0 1 0 1 0 0 0 0 0 0 0 0 0 0 0 0 0 0 0 0 0 0 0 0 0 0 0 0 0 0 0 0 0 0 0 0 0 0 1 0 1 0 0 0 0 0 0 9 4 17 9 25 14l1 11 0 0z m63 46c-10-9-20-17-31-25l6-8c2 1 3 2 5 4l0 0c0 0 0 0 0 0 0 0 0 0 0 0 0 0 0 0 0 0 0 0 0 0 0 0 0 0 0 0 0 0 0 0 0 0 0 0 0 0 0 0 0 0 0 0 0 0 0 0 0 0 0 0 0 0 0 0 0 0 0 0 0 0 0 0 0 0 0 0 0 0 0 0 0 0 0 0 0 0 0 0 0 0 0 0 0 0 0 0 0 0 0 0 0 0 0 0 0 0 0 0 0 0 0 0 0 0 0 0 0 0 0 0 0 0 0 0 0 0 0 0 0 0 0 0 0 0 0 0 0 0 0 0 0 0 0 0 0 0 0 0 0 0 0 0 0 0 0 0 0 0 0 0 0 0 0 0 0 0 0 0 0 0 0 0 0 0 0 0 0 0 0 0 0 0 0 0 0 0 0 0 0 0 0 0 0 0 0 0 0 0 0 0 0 0 0 0 0 0 0 0 0 0 0 0 0 0 0 0 0 0 0 0 0 0 0 0 0 0 0 0 0 0 0 0 1 1 1 1l0 0c5 3 10 7 15 11 0 0 0 0 0 0 0 0 0 0 0 0 0 0 0 0 0 0 0 0 0 1 0 1 0 0 0 0 0 0 0 0 0 0 0 0 0 0 0 0 0 0 0 0 0 0 0 0 0 0 0 0 0 0 0 0 0 0 0 0 0 0 0 0 0 0 0 0 0 0 0 0 0 0 0 0 0 0 0 0 0 0 0 0 0 0 0 0 0 0 0 0 0 0 0 0 0 0 0 0 0 0 0 0 0 0 0 0 0 0 0 0 0 0 0 0 0 0 0 0 0 0 0 0 0 0 0 0 0 0 0 0 0 0 0 0 0 0 0 0 0 0 0 0 0 0 0 0 0 0 0 0 0 0 0 0 0 0 0 0 0 0 0 0 0 0 0 0 0 0 0 0 0 0 0 0 0 0 0 0 2 2 4 3 6 5l-2 11 0 0z m55 55c-8-10-17-20-26-29l7-7c7 7 14 15 21 23l0 0c0 0 0 0 0 0 0 0 0 0 0 0 0 0 0 0 0 0l0 0c0 0 0 0 0 0 0 0 0 0 0 0 0 0 0 0 0 1 0 0 0 0 0 0 0 0 0 0 0 0 0 0 0 0 0 0 0 0 0 0 0 0 0 0 0 0 0 0 0 0 0 0 0 0 0 0 0 0 0 0 0 0 0 0 0 0 0 0 0 0 0 0 0 0 0 0 0 0 0 0 0 0 0 0 0 0 0 0 0 0 0 0 0 0 0 0 0 0 0 0 0 0 0 0 0 0 0 0 0 0 0 0 0 0 0 0 0 0 0 0 0 0 0 0 0 0 0 0 0 0 0 0 0 0 0 0 0 0 0 0 0 0 0 0 0 0 0 0 0 0 2 1 3 2 4 4l-6 8 0 0z m45 64c-6-11-13-22-21-33l8-5c4 5 7 10 10 15l0 0c0 0 1 0 1 0 0 0 0 0 0 0 0 0 0 0 0 0 0 0 0 0 0 0 0 0 0 0 0 0 0 0 0 0 0 0 0 0 0 0 0 0 0 0 0 0 0 0 0 0 0 0 0 0 0 0 0 0 0 0 0 0 0 0 0 0 0 0 0 0 0 0 0 0 0 0 0 0 0 0 0 0 0 0 0 0 0 0 0 0 0 0 0 0 0 0 0 0 0 0 0 0 0 0 0 0 0 0 0 0 0 0 0 0 0 0 0 0 0 0 0 0 0 0 0 0 0 0 0 0 0 0 0 0 0 0 0 0 0 0 0 0 0 0 0 0 0 0 0 0 0 0 0 0 0 0 0 0 0 0 0 0 0 0 0 0 0 0 0 0 0 0 0 0 0 0 0 0 0 0 0 0 0 0 0 0 0 0 0 0 0 0 0 0 0 0 0 0 0 0 0 0 0 0 0 0 0 0 0 0 0 0 0 1 0 1 0 0 0 0 0 0 0 0 0 0 0 0 0 0 0 0 0 0 0 0 0 0 0 0 0 0 0 0 0 0 3 5 6 9 9 14l-7 8 0 0z m35 70c-5-12-10-24-16-36l9-4c1 1 1 2 2 4 0 0 0 0 0 0 0 0 0 0 0 0 0 0 0 0 0 0 0 0 0 0 0 0 0 0 0 0 0 0 0 0 0 0 0 0 0 0 0 0 0 0 0 0 0 0 0 0 0 0 0 0 0 0 0 0 0 1 0 1 0 0 0 0 0 0 0 0 0 0 0 0 0 0 0 0 0 0 0 0 0 0 0 0 0 0 0 0 0 0 0 0 0 0 0 0 0 0 0 0 0 0 0 0 0 0 0 0 0 0 0 0 0 0 0 0 0 0 0 0 0 0 0 0 0 0 0 0 0 0 0 0 0 0 0 0 0 0 0 0 0 0 0 0 0 0 0 0 0 0 0 0 0 0 0 0 0 0 0 0 0 0 0 0 0 0 0 0 0 0 0 0 0 0 0 0 0 0 0 0 0 0 0 0 0 0 0 0 0 0 0 0 0 0 0 0 0 0 0 0 0 0 0 0 0 0 0 0 0 0l0 0c0 0 0 0 0 0l0 0c0 0 0 0 0 0 0 0 0 0 0 0 0 0 0 0 0 0 0 0 0 0 0 0 0 0 0 0 0 0l0 0c0 0 0 1 1 1l0 0c0 0 0 0 0 0 0 0 0 0 0 0 0 0 0 0 0 0 0 0 0 0 0 0 0 0 0 0 0 0 0 0 0 0 0 0 0 0 0 0 0 0 0 0 0 0 0 0 0 0 0 0 0 0 0 0 0 0 0 0 0 0 0 0 0 0 0 0 0 0 0 0 0 0 0 0 0 0l0 0c0 0 0 1 0 1l0 0c0 0 0 0 0 0 0 0 0 0 0 0 0 0 0 0 0 0 0 0 0 0 0 0 0 0 0 0 0 0 0 0 0 0 0 0 0 0 0 0 0 0l0 0c0 0 0 0 0 0 0 0 0 0 0 0 0 0 0 0 0 0 0 0 0 0 0 0 0 0 0 0 0 0 0 0 0 0 0 0 0 0 0 0 0 0 0 0 0 0 0 0 0 0 0 0 0 0 0 0 0 0 0 0 0 0 0 0 0 0 0 0 0 0 0 0 0 0 0 0 0 0 0 0 0 0 0 0 0 0 0 0 0 0 0 0 0 0 0 0 0 0 0 0 0 0 0 0 0 0 0 0 0 0 0 0 0 1 0 0 0 0 0 0 0 0 0 0 0 0 0 0 0 0 0 0 0 0 0 0 0 0 0 0 0 0 0 0 0 0 0 0 0 0 0 0 0 0 0 0 0 0 0 0 0 0 0 0 0 0 0 0 0 0 0 0 0 0 0 0 0 0 0 0 0 0 0 0 0 0 0 0 0 0 0 0 0 0 0 0 0 0 0 0 0 0 0 0 0 0 0 0 0 0 0 0 0 0 0 0 0 0 0 0 0 0 0 0 0 0 0 0 0 0 0 0 0 0 0 0 0 0 0 0 0 0 0 0 0 0 0 0 0 0 0 0 0 0 0 0 0 0 0 1 1 1 1 1 0 0 0 0 0 0 3 7 6 14 8 21l-5 10 0 0z m22 75c-3-12-6-25-10-38l10-3c0 2 1 3 1 5 0 0 0 0 0 0 0 0 0 0 0 0 0 0 0 0 0 0 0 0 0 0 0 0 0 0 0 0 0 0 0 0 0 0 0 0 0 0 0 0 0 0 0 0 0 0 0 0 0 0 0 0 0 0 0 0 0 0 0 0 0 0 0 0 0 0 0 0 0 0 0 0 0 0 0 0 0 0 0 0 0 0 0 0 0 0 0 0 0 0 0 0 0 0 0 0 0 1 0 1 0 1 0 0 0 0 0 0 0 0 0 0 0 0l0 0c0 0 0 0 0 0 0 0 0 0 0 0 3 11 6 21 8 32l-9 3 0 0z m10 78c-1-13-2-26-4-39l10-1c0 0 0 0 0 0 0 0 0 0 0 0 0 0 0 0 0 1 0 0 0 0 0 0 0 0 0 0 0 0 0 0 0 0 0 0 0 0 0 0 0 1 0 0 0 0 0 0 0 0 0 0 0 0 0 0 0 0 0 0 0 0 0 0 0 0 0 0 0 0 0 0 0 0 0 0 0 0 0 0 0 0 0 0 0 0 0 0 0 0 0 0 0 0 0 0 0 0 0 0 0 0 0 0 0 0 0 0 0 0 0 0 0 0 0 0 0 0 0 0 0 0 0 0 0 0 0 0 0 0 0 0 0 0 0 0 0 0 0 0 0 0 0 0 0 0 0 0 0 0 0 0 0 0 0 0 0 0 0 0 0 0 0 0 0 0 0 0 0 0 0 0 0 0 0 0 0 0 0 0 0 0 0 0 0 0 0 0 0 0 0 0 0 0 0 0 0 0 0 0 0 0 0 0 0 0 0 0 0 0 0 0 0 0 0 0 0 0 0 0 0 0 0 0 0 0 0 0 0 0 0 0 0 0 0 0 0 0 0 0 0 0 0 0 0 0 0 0 0 0 0 0 0 0 0 0 0 0 0 0 0 0 0 0 0 0 0 0 0 0 0 0 0 0 0 0 0 0 0 0 0 0 0 0 0 0 0 0 0 0 0 0 0 0 0 0 0 0 0 0 0 0 0 0 0 0 0 0 0 0 0 1 0 0 0 0 0 0 0 0 0 0 0 0 0 0 0 0 0 0 0 0 0 0 0 0 0 0 0 0 0 0 0 0 0 0 0 0 0 0 0 0 0 0 0 0 0 0 0 0 0 0 0 0 0 0 0 0 0 0 0 0l0 0c0 0 0 0 0 0 0 0 0 0 0 0 0 0 0 0 0 0 0 0 0 0 0 0 0 0 0 0 0 0 0 0 0 0 0 0 0 0 0 0 0 0 0 0 0 0 0 0 0 0 0 0 0 0 0 0 0 0 0 0 0 0 0 0 0 0 0 0 0 0 0 0 0 0 0 0 0 0 0 0 0 0 0 0 0 0 0 0 0 0 0 0 0 0 0 0 0 0 0 0 0 0l0 0c0 0 0 1 0 1 0 0 0 0 0 0 0 0 0 0 0 0 0 0 0 0 0 0 0 0 0 0 0 0 0 0 0 0 0 0 0 0 0 0 0 0 0 0 0 0 0 0 0 0 0 0 0 0 0 0 0 0 0 0 0 0 0 0 0 0 0 0 0 0 0 0 0 0 0 0 0 0 0 0 0 0 0 0 0 0 0 0 0 0 0 0 0 0 0 0 0 0 0 0 0 0 0 0 0 0 0 0 0 0 0 0 0 0l0 0c0 0 0 0 0 0 0 0 0 0 0 0 0 0 0 0 0 0 0 0 0 0 0 0 0 0 0 0 0 0 0 0 0 0 0 0 0 0 0 0 0 0l0 0c0 1 0 1 0 1 0 0 0 0 0 0 0 0 0 0 0 0 0 0 0 0 0 0 0 0 0 0 0 0 0 0 0 0 0 0 0 0 0 0 0 0l0 0c0 0 0 0 0 0l0 0c0 0 0 0 0 0 0 0 0 0 0 0 0 0 0 0 0 0 0 0 0 0 0 0 0 0 0 0 0 0 0 0 0 0 0 0 0 0 0 0 0 0l0 0c0 0 0 1 0 1v0c0 0 0 0 0 0 0 0 0 0 0 0 0 0 0 0 0 0 0 0 0 0 0 0 0 0 0 0 0 0 0 0 0 0 0 0 0 0 0 0 0 0 0 0 0 0 0 0 0 0 0 0 0 0 0 0 0 0 0 0 0 0 0 0 0 0 0 0 0 0 0 0 0 0 0 0 0 0 0 0 0 0 0 0 0 0 0 0 0 0l0 0c0 0 0 1 0 1l0 0c0 0 0 0 0 0 0 0 0 0 0 0 0 0 0 0 0 0 0 0 0 0 0 0 0 0 0 0 0 0 0 0 0 0 0 0 0 0 0 0 0 0 0 0 0 0 0 0 0 0 0 0 0 0l0 0c0 0 0 0 0 0 0 0 0 0 0 0 0 0 0 0 0 0 0 0 0 0 0 0 0 0 0 0 0 0 0 0 0 0 0 0 0 0 0 0 0 0 0 0 0 0 0 0 0 0 0 0 0 0 0 0 0 0 0 0 0 0 0 0 0 0 0 0 0 0 0 0 0 0 0 0 0 0 0 0 0 0 0 0 0 0 0 0 0 0 0 0 0 0 0 0 0 0 0 0 0 0 0 0 0 0 0 0 0 0 0 0 0 1 0 0 0 0 0 0 0 0 0 0 0 0 0 0 0 0 0 0 0 0 0 0 0 0 0 0 0 0 0 0 0 0 0 0 0 0 0 0 0 0 0 0 0 0 0 0 0 0 0 0 0 0 0 0 0 0 0 0 0 0l0 0c0 0 0 0 0 0 0 0 0 0 0 0 0 0 0 0 0 0 0 0 0 0 0 0 0 0 0 0 0 0 0 0 0 0 0 0 0 0 0 0 0 0 0 0 0 0 0 0 0 0 0 0 0 0 0 0 0 0 0 0 0 0 0 0 0 0 0 0 0 0 0 0 0 0 0 0 0 0 0 0 0 0 0 0 0 0 0 0 0 0 0 0 0 0 0 0 0 0 0 0 0 0 0 0 0 0 0 0 0 0 0 0 0 0 0 0 0 0 0 0 0 0 0 0 0 0 0 0 0 0 0 0 0 0 0 0 0 0 0 0 0 0 0 0 0 0 0 0 0 1 0 0 0 0 0 0 0 0 0 0 0 0 0 0 0 0 0 0 0 0 0 0 0 0 0 0 0 0 0 0 0 0 0 0 0 0 0 0 0 0 0 0 0 0 0 0 0 0 0 0 0 0 0 0 0 0 0 0 0 0 0 0 0 0 0 0 0 0 0 0 0 0 0 0 0 0 0 0 0 0 0 0 0 0 0 0 0 0 0 0 0 0 0 0 0 0 0 0 0 0 0 0 0 0 0 0 0 0 0 0 0 0 0 0 0 0 0 0 0 0 0 0 0 0 0 0 0 0 0 0 0 0 0 0 0 0 0 0 0 0 0 0 0 0 0 0 0 0 0 0 0 0 0 0 0 0 0 0 0 0 0 0 0 0 0 0 0 0 0 0 0 0 0 0 0 0 0 0 0 0 0 0 0 0 0 0 0 0 0 0 0 0 0 0 0 0 0 0 0 0 0 0 0 0 0 0 0 0 0 0 0 0 0 0 0 0 0 0 0 0 0 0 0 0 0 0 0 0 0 0 0 0 0 0 0 0 0 0 0 0 0 0 0 0 0 0 0 0 0 0 0 0 0 0 0 0 0 0 0 0 0 0 0 0 0 0 0 0 0 0 0 0 0 0 0 1l0 0c0 0 0 0 0 0 0 0 0 0 0 0 0 0 0 0 0 0 0 0 0 0 0 0 0 0 0 0 0 0 0 0 0 0 0 0 0 0 0 0 0 0 0 0 0 0 0 0 0 0 0 0 0 0l0 0c0 0 0 0 0 0 0 0 0 0 0 0 0 0 0 0 0 0 0 0 0 0 0 0 0 0 0 0 0 0 0 0 0 0 0 0 0 0 0 0 0 0l0 0c0 0 0 0 0 0l0 0c0 0 0 0 0 0 0 0 0 0 0 0 0 0 0 0 0 0 0 0 0 0 0 0 0 0 0 0 0 0 0 0 0 0 0 0 0 0 0 0 0 0l0 0c0 0 0 1 0 1l0 0c0 0 0 0 0 0 0 0 0 0 0 0 0 0 0 0 0 0l0 0c0 0 0 0 0 0l0 0c0 0 0 0 0 0l0 0c0 0 0 0 0 0l0 0c0 3 1 6 1 8l-7 21 0 0z m7 79l-10-1c1-13 2-26 3-39l10 0c0 3-1 6-1 9 0 0 0 0 0 0 0 0 0 0 0 0 0 0 0 0 0 0 0 0 0 0 0 0 0 0 0 0 0 0 0 0 0 0 0 0 0 0 0 0 0 0 0 0 0 1 0 1 0 0 0 0 0 0 0 0 0 0 0 0 0 0 0 0 0 0 0 0 0 0 0 0 0 0 0 0 0 0 0 0 0 0 0 0 0 0 0 0 0 0 0 0 0 0 0 0 0 0 0 0 0 0 0 0 0 0 0 0 0 0 0 0 0 0l0 0c0 0 0 0 0 0 0 0 0 0 0 0 0 0 0 0 0 0 0 0 0 0 0 0 0 0 0 0 0 0 0 0 0 0 0 0 0 0 0 0 0 0l0 0c0 0 0 0 0 1l0 0c0 0 0 0 0 0l0 0c0 5 0 10-1 14l0 0c0 0 0 0 0 0l0 0c0 1 0 1 0 1l0 0c0 0 0 0 0 0 0 0 0 0 0 0 0 0 0 0 0 0l0 0c0 0 0 1 0 1 0 0 0 0 0 0 0 0 0 0 0 0 0 0 0 0 0 0 0 0 0 0 0 0 0 0 0 0 0 0 0 0 0 0 0 0 0 0 0 0 0 0 0 0 0 0 0 0 0 0 0 0 0 0 0 0 0 0 0 0 0 0 0 0 0 0 0 0 0 0 0 0 0 0 0 0 0 0 0 0 0 0 0 0 0 0 0 0 0 0 0 0 0 0 0 0 0 0 0 0 0 0 0 0 0 0 0 0 0 0 0 0 0 0 0 0 0 0 0 0 0 0 0 0 0 0 0 0 0 0 0 0 0 0 0 0 0 0 0 0 0 0 0 0 0 0 0 0 0 0 0 0 0 0 0 0 0 0 0 0 0 0 0 0 0 0 0 0-1 8-1 11-1 13l0 0z m-16 79l-10-3c4-12 7-25 10-38l9 2c0 2-1 5-1 7 0 0 0 0 0 0 0 0 0 0 0 0l0 0c0 0 0 0 0 0 0 0 0 0 0 0 0 0 0 0 0 0l0 0c0 0 0 0 0 0 0 0 0 0 0 0 0 0 0 0 0 0 0 0 0 0 0 0 0 0 0 0 0 0 0 0 0 0 0 0 0 0 0 0 0 0 0 0 0 0 0 0 0 0 0 0 0 0 0 0 0 0 0 0 0 0 0 0 0 0 0 0 0 0 0 0 0 0 0 0 0 0 0 0 0 0 0 0 0 0 0 0 0 0 0 0 0 0 0 0 0 0 0 0 0 0 0 0 0 0 0 0 0 0 0 0 0 0 0 0 0 0 0 0 0 0 0 0 0 0 0 0 0 0 0 1 0 0 0 0 0 0 0 0 0 0 0 0 0 0 0 0 0 0 0 0 0 0 0 0 0 0 0 0 0 0 0 0 0 0 0 0 0 0 0 0 0 0 0 0 0 0 0 0 0 0 0 0 0 0 0 0 0 0 0 0 0 0 0 0 0 0 0 0 0 0 0 0 0 0 0 0 0 0 0 0 0 0 0 0 0 0 0 0 0 0 0 0 0 0 0 0 0 0 0 0 0 0 0 0 0 0 0 1 0 0 0 0 0 0 0 0 0 0 0 0 0 0 0 0 0 0 0 0 0 0 0 0 0 0 0 0 0 0 0 0 0 0 0 0 0 0 0 0 0 0 0 0 0 0 0 0 0 0 0 0 0 0 0 1 0 1 0 1 0 0 0 0 0 0 0 0 0 0 0 1 0 0 0 0 0 0 0 0 0 0-1 1 0 0 0 0 0 0 0 0 0 0 0 1 0 0 0 0 0 0 0 0 0 0 0 1 0 0 0 0 0 0 0 0 0 0-1 0 0 0 0 0 0 0 0 0 0 0 0 1 0 0 0 0 0 0 0 0 0 0 0 0 0 0 0 0 0 0 0 0 0 0 0 0 0 0 0 0 0 0 0 0 0 0 0 0 0 0 0 0 0 0 0 1 0 1 0 1 0 0 0 0 0 0 0 0 0 0 0 0 0 0 0 0 0 0 0 0 0 0 0 0 0 0 0 0 0 0 0 0 0 0 0 0 0 0 0 0 0 0 0 0 0 1 0 1 0 0 0 0 0 0 0 0 0 0 0 0 0 0 0 0 0 0 0 0 0 0 0 0 0 0 0 0 0 0 0 0 0 0 0 0 0 0 0 0 0 0 0 0 0 0 0 0 0 0 0 0 0 0 0 0 0 0 0 0 0 0 0 0 0 0 0 0 0 0 0 0 0 0 0 0 0 0 0 0 0 0 0 0 0 0 0 0 0 0 0 0 0 0 0 0 0 0 0 0 0 0 0 0 0 0 0 0 0 0 0 0 0 0 0 0 0 0 0 0 0 0 0 0 0 0 0 0 0 0 0 0 0 0 0 0 0 0 0 0 0 0 0 0 0 0 0 0 0 0 0 0 0 0 0 0 0 0 0 0 0 0 0 0 0 0 0 0 0 0 0 0 0 0 0 0 0 0 0 1 0 0 0 0 0 0 0 0 0 0 0 0 0 0 0 0 0 0 0 0 0 0 0 0 0 0 0 0 0 0 0 0 0 0 0 0 0 0 0 0 0 0 0 0 0 0 0 0 0 0 0 0 0 0 0 0 0 0 0 0 0 0 0 0 0 0 0 0 0 0 0 0 0 0 0 0 0 0 0 0 0 0 0 0 0 0 0 0 0 0 0 0 0 0 0 0 0 0 0 0 0 0 0 0 0 0 0 0 0 0 0 0 0 0 0 0 0 0 0 0 0 0 0 0 0 0 0 0 0 0 0 0 0 0 0 0 0 0 0 0 0 0 0 0 0 0 0 0 0 0 0 0 0 0 0 0 0 0 0 0 0 0 0 0 0 0 0 0 0 0 0 0 0 0 0 0 0 0 0 0 0 0 0 0 0 0 0 0 0 0 0 0 0 0 0 0 0 0l0 0c0 0 0 0 0 0 0 0 0 0 0 0 0 0 0 0 0 0 0 0 0 0 0 0 0 0 0 0 0 0 0 0 0 0 0 0 0 0 0 0 0 0l0 0c0 0 0 1 0 1 0 0 0 0 0 0 0 0 0 0 0 0 0 0 0 0 0 0 0 0 0 0 0 0 0 0 0 0 0 0 0 0 0 0 0 0 0 0 0 0 0 0 0 0 0 0 0 0l0 0c0 0 0 0 0 0 0 0 0 0 0 0 0 0 0 0 0 0 0 0 0 0 0 0 0 0 0 0 0 0 0 0 0 0 0 0 0 0 0 0 0 0l0 0c0 0 0 0 0 1 0 0 0 0 0 0 0 0 0 0 0 0l0 0c0 0 0 0 0 0 0 0 0 0 0 0 0 0 0 0 0 0l0 0c0 0 0 0 0 0l0 0c0 0 0 0 0 0l0 0c0 1 0 1-1 1l0 0c0 1 0 1 0 1 0 0 0 0 0 0 0 0 0 0 0 0l0 0c0 1 0 1 0 1l0 0c0 0 0 0 0 0l0 0c0 0 0 0 0 0l0 0c0 0-1 1-1 1l0 0c0 0 0 1 0 1l0 0c0 0 0 0 0 0l0 0c0 0 0 0 0 0l0 0c0 0 0 0 0 1 0 0 0 0 0 0 0 0 0 0 0 0l0 0c0 0 0 0 0 0 0 0 0 0 0 0 0 0 0 0 0 0l0 0c0 0 0 0 0 0l0 0c0 0 0 0 0 0 0 0 0 0 0 0 0 0 0 0 0 0 0 0 0 0 0 0 0 0 0 0 0 0 0 0 0 0 0 0-4 12-4 12-4 13l0 0c0-1 0 0 0 0 0 0 0 0 0 0l0 0z m-29 74l-9-4c6-12 11-24 16-36l9 4c-4 10-9 21-13 32 0 0 0 0 0 0 0 0 0 0 0 0 0 0 0 0 0 0 0 0 0 0 0 0 0 0 0 0 0 0 0 0 0 0 0 0 0 0 0 0 0 0 0 0 0 0 0 0 0 0 0 0 0 0 0 0 0 0 0 0 0 0 0 0 0 0 0 0 0 0 0 0 0 0 0 0 0 0 0 0 0 0 0 0 0 0 0 0 0 0 0 0 0 0 0 0 0 0 0 0 0 0 0 0 0 0 0 0 0 0 0 0 0 0 0 0 0 0 0 0 0 0 0 0 0 0l0 0c0 0-1 0-1 1l0 0c0 0 0 0 0 0l0 0c-1 2-1 3-2 3l0 0z m-40 69l-8-5c7-11 14-22 21-33l9 5c-2 3-5 7-7 10 0 0 0 0 0 0 0 0 0 0 0 0l0 0c0 1 0 1 0 1l0 0c0 0 0 0 0 0 0 0 0 0 0 0 0 0 0 0 0 0 0 0 0 0 0 0 0 0 0 0 0 0 0 0 0 0 0 0 0 0 0 0 0 0 0 0 0 0 0 0 0 0 0 0 0 0 0 0 0 0 0 0 0 0 0 0 0 0 0 0 0 0 0 0 0 0 0 0 0 0 0 0 0 0 0 0 0 0 0 0 0 0 0 0 0 1-1 1 0 0 0 0 0 0 0 0 0 0 0 0 0 0 0 0 0 0 0 0 0 0 0 0 0 0 0 0 0 0-5 8-9 15-14 21l0 0z m-51 62l-7-7c9-10 18-19 26-29l8 6c-1 0-1 1-1 1l0 0c0 0 0 0 0 0 0 0 0 0 0 0 0 0-1 1-1 1 0 0 0 0 0 0 0 0 0 0 0 0 0 0 0 0 0 0 0 0 0 0 0 0 0 0 0 0 0 0 0 0 0 0 0 0 0 0 0 0 0 0 0 0 0 0 0 0 0 0 0 0 0 0 0 0 0 0 0 0 0 0 0 0 0 0 0 0 0 0 0 0 0 0 0 0 0 0 0 0 0 0 0 0 0 0 0 0 0 0 0 0 0 0 0 0 0 0 0 0 0 0l0 0c-4 5-8 9-12 14 0 0 0 0 0 0 0 0 0 0 0 0 0 0 0 0 0 0 0 0 0 0 0 0 0 0 0 0 0 0 0 0 0 0 0 0 0 0 0 0 0 0 0 0 0 0 0 0 0 0 0 0 0 0 0 0 0 0 0 0 0 0 0 0 0 0 0 0 0 0 0 0 0 0 0 0 0 0 0 0 0 0 0 0 0 0 0 0 0 0 0 0 0 0 0 0 0 0 0 0 0 0 0 0 0 0 0 0 0 0 0 0 0 0 0 0 0 0 0 0 0 0 0 0 0 0 0 0 0 0 0 0 0 0 0 0 0 0 0 0 0 0 0 0 0 0 0 0 0 0 0 0 0 0 0 0 0 0 0 0 0 0 0 0 0 0 0 0 0 0 0 0-1 0l0 0c0 0 0 0 0 0 0 0 0 0 0 0 0 0 0 0 0 0l0 0c-6 7-9 10-12 14l0 0z m-61 52l-6-8c11-8 21-16 31-24l7 7c-10 9-21 17-32 25l0 0z m-68 42l-4-9c11-6 23-12 34-19l5 9c-11 6-23 13-35 19l0 0z m-74 30l-3-10c13-4 25-8 37-13l4 9c-12 5-25 10-38 14l0 0z m-78 18l-1-10c13-2 26-5 39-7l2 9c-12 3-25 5-37 7 0 0 0 0 0 0 0 0 0 0 0 0 0 0 0 0 0 0 0 0 0 0 0 0l0 0c0 0 0 0-1 0 0 0 0 0 0 0 0 0 0 0 0 0 0 0 0 0 0 0 0 0 0 0 0 0 0 0 0 0 0 0 0 0 0 0 0 0 0 0 0 0 0 0 0 0 0 0 0 0 0 0 0 0 0 0 0 0 0 0 0 0 0 0 0 0 0 0 0 0 0 0 0 0-1 0-1 0-2 1 1-1 1-1 0 0 1-1 0 0 0 0 0 0 0 0 0 0 0 0 0 0 0 0l0 0z m-68 4v-10c9 0 19 0 28 0l1 10c-1 0-1 0-1 0h0c-1 0-1 0-1 0l0 0c-2 0-3 0-4 0l0 0c-1 0-1 0-1 0 0 0 0 0 0 0-1 0-1 0-1 0 0 0 0 0 0 0 0 0 0 0-1 0l0 0c0 0 0 0 0 0 0 0 0 0 0 0 0 0 0 0-1 0 0 0 0 0 0 0 0 0 0 0 0 0l0 0c0 0 0 0-1 0 0 0 0 0 0 0 0 0 0 0 0 0 0 0 0 0 0 0 0 0 0 0-1 0 0 0 0 0 0 0 0 0 0 0 0 0 0 0 0 0 0 0 0 0 0 0 0 0l0 0c0 0-1 0-1 0 0 0 0 0 0 0 0 0 0 0 0 0 0 0 0 0 0 0 0 0 0 0 0 0 0 0 0 0 0 0-1 0-1 0-1 0 0 0 0 0 0 0 0 0 0 0 0 0 0 0 0 0 0 0 0 0 0 0-1 0 0 0 0 0 0 0 0 0 0 0 0 0 0 0 0 0 0 0 0 0 0 0 0 0 0 0 0 0 0 0 0 0 0 0-1 0 0 0 0 0 0 0 0 0 0 0 0 0 0 0 0 0 0 0 0 0 0 0 0 0 0 0 0 0 0 0 0 0 0 0-1 0 0 0 0 0 0 0 0 0 0 0 0 0 0 0 0 0 0 0 0 0 0 0 0 0 0 0 0 0 0 0 0 0 0 0-1 0 0 0 0 0 0 0 0 0 0 0 0 0 0 0 0 0 0 0 0 0 0 0 0 0 0 0 0 0 0 0 0 0 0 0 0 0 0 0 0 0 0 0 0 0 0 0-1 0 0 0 0 0 0 0 0 0 0 0 0 0 0 0 0 0 0 0 0 0 0 0 0 0 0 0 0 0 0 0 0 0 0 0 0 0 0 0 0 0 0 0 0 0 0 0 0 0 0 0 0 0 0 0 0 0 0 0 0 0 0 0 0 0 0 0 0 0 0 0-1 0 0 0 0 0 0 0 0 0 0 0 0 0 0 0 0 0 0 0 0 0 0 0 0 0 0 0 0 0 0 0 0 0 0 0 0 0 0 0 0 0 0 0 0 0 0 0 0 0 0 0 0 0 0 0 0 0 0 0-1 0 0 0 0 0 0 0 0 0 0 0 0 0 0 0 0 0 0 0 0 0 0 0 0 0 0 0 0 0 0 0 0 0 0 0 0 0 0 0 0 0 0 0 0 0 0 0 0 0 0 0 0 0 0 0 0 0 0 0 0 0 0 0 0 0 0 0 0 0 0 0 0 0 0 0 0 0 0 0 0 0 0 0 0 0 0 0 0 0 0 0 0 0 0 0 0 0 0 0 0 0 0 0 0 0 0 0-1 0 0 0 0 0 0 0 0 0 0 0 0 0 0 0 0 0 0 0 0 0 0 0 0 0 0 0 0 0 0 0 0 0 0 0 0 0 0 0 0 0 0 0 0 0 0 0 0 0 0 0 0 0 0 0 0 0 0 0 0 0 0 0 0 0 0 0 0 0 0 0 0 0 0 0 0 0 0 0 0 0 0 0 0 0 0 0 0 0 0 0 0 0 0 0 0 0 0 0 0 0 0 0 0 0 0 0 0 0 0 0 0 0 0 0 0 0 0 0 0 0 0 0 0 0 0 0 0 0 0 0 0 0 0 0 0 0 0 0 0 0 0 0-1 0 0 0 0 0 0 0 0 0 0 0 0 0 0 0 0 0 0 0 0 0 0 0 0 0 0 0 0 0 0 0 0 0 0 0 0 0 0 0 0 0 0 0 0 0 0 0 0 0 0 0 0 0 0 0 0 0 0 0 0 0 0 0 0 0 0 0 0 0 0 0 0 0 0 0 0 0 0 0 0 0 0 0 0 0 0 0 0 0 0 0 0 0 0 0 0 0 0 0 0 0 0 0 0 0 0 0-1 0 0 0 0 0 0 0 0 0 0 0 0 0 0 0 0 0 0 0 0 0 0 0 0 0 0 0 0 0 0 0 0 0 0 0 0 0 0 0 0 0 0 0 0 0 0 0 0 0 0 0 0 0 0 0 0 0 0 0 0 0 0 0 0 0 0 0 0 0 0 0 0 0 0 0 0 0 0 0 0 0 0 0 0 0 0 0 0 0 0 0-5 0-5 0-5 0 0 0 0 0 0 0 0 0 0 0 0 0l0 0 0 0z m252-420h-504c-37 0-68-30-68-68s31-68 68-68h504c37 0 68 30 68 68s-31 68-68 68z m-117-82h-270v28h270v-28z" horiz-adv-x="1000" />

<glyph glyph-name="dyn-panorama" unicode="&#xe81b;" d="M499-76c-127 0-246 20-335 56-94 39-146 91-146 149 0 0 0 455 0 469 9 42 46 82 109 113 2 1 4 2 7 2 3 0 6-1 8-2 5-3 8-8 8-13v-226l2-1c9-5 17-8 24-11 86-35 200-54 323-54 123 0 238 19 323 55 8 3 16 6 23 9l2 1v227c0 6 2 10 7 13 3 1 5 2 8 2 3 0 5 0 8-1 64-33 102-72 111-114 0-6 0-123 0-235 0-59 0-117 0-161 0-22 0-40 0-53 0-6 0-11 0-15 0-2 0-4 0-5l0 0c0-58-52-111-146-149-91-36-210-56-336-56z m-420 145l2-2c21-21 54-41 94-57 86-35 201-55 324-55 122 0 236 20 323 55 27 10 51 23 71 37l3 3-276 276-184-184 53-53c6-6 6-16 0-22-3-3-6-4-11-4-4 0-8 1-11 4l-195 195-193-193z m541 294c4 0 8-1 11-4l289-290 2 2c17 19 27 38 27 57l1 377-6-6c-25-26-62-49-109-68-91-36-210-56-335-56-127 0-246 20-335 56-48 19-85 42-110 68l-5 6v-376c0-11 2-21 8-32l2-4 201 202c3 3 7 4 11 4 5 0 8-1 11-4l131-131 195 195c3 3 7 4 11 4z m257 125l5 3c36 23 59 49 64 75l0 0v27l0 0c-5 26-27 52-64 75l-5 3v-183z m-764 180c-36-23-58-49-64-75l0 0v-13c0-31 23-61 65-88l5-3v182l-6-3z" horiz-adv-x="1000" />

<glyph glyph-name="dyn-parallax" unicode="&#xe81c;" d="M674 335l-272 272-66-66-61 61-272-272 272-271 66 66 61-62 272 272z m-399-248l-244 243 244 244 47-47-192-192 197-196-52-52z m61 425l182-182-177-177-182 182 177 177z m210-182l-196 197 52 51 243-243-243-243-47 47 191 191z m295 368c-15 0-29-2-42-5-13 3-27 5-42 5-85 0-155-69-155-155 0-86 69-156 155-156 15 0 29 2 42 6 13-4 27-6 42-6 86 0 156 70 156 156s-70 155-156 155z m-84-291c-74 0-135 61-135 136 0 75 60 136 135 136 3 0 5 0 8-1-47-26-80-77-80-135 0-58 32-109 79-135-2-1-4-1-7-1z m42 265c54-18 94-69 94-129 0-60-40-111-94-129-54 18-94 69-94 129 0 60 40 111 94 129z m42-265c-2 0-5 0-7 1 47 27 79 77 79 135 0 58-32 109-80 135 3 0 5 1 8 1 75 0 136-61 136-136 0-75-61-136-136-136z m-114-173l-59-102-32 55-121-209h241l-27 47h118l-120 209z m-5-236h-172l86 149 20-35-50-87h100l16-27z m-54 94l27-47h-54l27 47z m11 20l48 82 86-149h-95l-39 67z" horiz-adv-x="1000" />

<glyph glyph-name="dyn-parentchild" unicode="&#xe81d;" d="M9 684h978v-109h-978v109z m352-426h571v-26h-571v26z m0-102h571v-26h-571v26z m0 204h571v-26h-571v26z m0 102h571v-26h-571v26z" horiz-adv-x="1000" />

<glyph glyph-name="dyn-parenttax" unicode="&#xe81e;" d="M514 375h-502v402h230l51-70h221v-332z m-469 33h436v266h-205l-51 70h-180v-336z m218-178h723v-33h-723v33z m0-129h723v-33h-723v33z m0-130h723v-33h-723v33z" horiz-adv-x="1000" />

<glyph glyph-name="dyn-phprow" unicode="&#xe81f;" d="M823 712l1 1-126 124-1-1h-476v-723h269v-200l-75 80-19-17 107-115 107 115-19 17-75-80v200h309 0v599h-2z m-125 92l95-92h-95v92z m104-669h-286v265h-26v-265h-247v678h432v-123h127v-555z m-398 482h8v-21h-7c-23 0-31-13-31-34 0-9 1-19 3-28 1-10 2-20 2-30 1-26-10-38-28-43v-1c18-4 29-17 28-43 0-10-1-20-2-30-2-10-3-19-3-28 0-22 9-34 31-34h7v-22h-9c-32 0-57 14-57 54 0 11 2 22 3 32 2 11 3 22 3 32 0 13-4 29-32 29v21h1c28 0 32 15 32 29 0 11-2 22-3 33-2 11-3 22-3 33 0 36 23 51 57 51z m286-145v-21h-1c-28 0-32-17-32-29 0-11 2-21 3-32 2-11 3-22 3-32 0-40-24-54-57-54h-8v21h7c22 1 31 13 31 35 0 9-1 18-2 28-2 9-3 19-3 30 0 25 11 39 28 43v1c-17 4-28 17-28 42 0 11 1 20 3 30 1 10 2 19 2 28 0 22-8 34-31 34h-7v22h8c34 0 58-15 58-52 0-11-2-21-3-32-2-11-3-22-3-33 0-14 4-29 32-29z" horiz-adv-x="1000" />

<glyph glyph-name="dyn-poster" unicode="&#xe820;" d="M152 403l-46-46 46-47-12-12-58 59 58 58 12-12z m710-105l58 59-58 58-12-12 47-46-47-47 12-12z m130 342v-586h-982v586h982z m-603-178v19h-14v-307h253v307h-16v-19h-43v19h-137v-19h-43z m193 59v99h-161v-99h11v-20h137v20h13z m390 99h-370v-99h10v-20h36v-347h-293v347h34v20h12v99h-371v-546h942v546z" horiz-adv-x="1000" />

<glyph glyph-name="dyn-prevnext" unicode="&#xe821;" d="M872 421l-18-19 82-76h-214v-27h214l-82-76 18-20 117 109-117 109z m-723-19l-19 19-117-109 117-109 19 20-82 76h214v27h-214l82 76z m250 137c28-6 49-31 49-61v-24c0-30-21-55-49-60v-59h77v-89c0-14 12-98 25-98 14 0 24 84 24 98v89h78v59c-28 6-49 31-49 60v24c0 30 21 55 49 61v58h-204c0 0 0-58 0-58z" horiz-adv-x="1000" />

<glyph glyph-name="dyn-readmore" unicode="&#xe822;" d="M894 461l-16-17 72-67h-186v156h-768v-337h768v158h186l-72-67 16-17 103 95-103 96z m-153-241h-721v290h721v-133h-360v-23h360v-134z" horiz-adv-x="1000" />

<glyph glyph-name="dyn-remotecontent" unicode="&#xe823;" d="M520-135c-171 0-310 139-310 310 0 154 116 286 268 307l4 0 38 119 38-119 4 0c152-21 268-153 268-307 0-171-139-310-310-310z m-89 187c17-98 53-164 89-164 37 0 73 66 90 164l1 7-7-1c-28-3-56-4-83-4-28 0-56 1-84 4l-7 1 1-7z m360 63c-33-24-88-42-153-52l-4-1-1-4c-10-66-29-120-52-154l-8-11 14 3c104 25 188 108 213 213l3 14-12-8z m-550-6c25-105 108-188 213-213l14-4-9 12c-23 33-42 88-52 154l0 4-4 0c-66 11-121 29-154 52l-12 9 4-14z m279 166c-30 0-60-2-89-5l-4-1-1-4c-3-29-5-59-5-90 0-30 2-60 5-89l1-4 4-1c28-3 58-5 89-5 31 0 61 2 90 5l4 0 1 5c3 28 5 58 5 89 0 31-2 61-5 89l-1 5-4 0c-29 4-59 6-90 6z m117-16c3-27 5-55 5-84 0-28-2-56-5-83l0-7 7 1c97 17 163 52 163 89 0 37-66 73-163 89l-7 2 0-7z m-240 6c-98-17-164-53-164-90 0-36 66-72 164-89l7-1-1 7c-3 27-4 55-4 83 0 28 1 56 4 84l1 7-7-1z m57 190c-105-25-188-109-213-213l-4-14 12 8c34 23 88 42 154 52l4 1 0 4c11 66 29 120 52 153l9 12-14-3z m127-9c23-33 42-88 52-153l1-4 4-1c65-10 120-29 153-52l12-8-3 14c-25 104-109 188-213 213l-14 3 8-12z m-61-149c28 0 56-1 84-4l7-1-1 7c-17 98-53 164-90 164-36 0-72-66-89-164l-1-7 7 1c28 3 56 4 83 4z m-5 308c-22 3-39 22-39 44 0 24 20 44 44 44 25 0 45-20 45-44 0-22-17-41-39-44l-6-1-5 1z m205-89l25-25c98 97 98 255 0 352l-25-25c83-83 83-219 0-302z m-44 44l25-25c73 73 73 191 0 264l-25-25c59-59 59-155 0-214z m-20 20c48 48 48 126 0 174l-26-26c34-34 34-89 0-123l26-25z m-335-64c-84 83-84 219 0 302l-26 25c-97-97-97-255 0-352l26 25z m18 19l26 25c-59 59-59 155 0 214l-26 25c-73-73-73-191 0-264z m46 45l25 25c-34 34-34 89 0 123l-26 26c-47-48-47-126 1-174z" horiz-adv-x="1000" />

<glyph glyph-name="dyn-scroll_reveal" unicode="&#xe824;" d="M103 715h83v-526h-83v526z m165-799h434v434h-434v-434z m434 788c-75 0-135-60-135-135s60-135 135-135 135 61 135 135-60 135-135 135z m266 71v-839c0-20-17-37-37-37s-37 17-37 37v839c0 20 16 37 37 37s37-17 37-37z m-53 0v-159h32v159c0 8-7 15-16 15s-16-7-16-15z m32-839v367h-32v-367c0-9 7-16 16-16s16 7 16 16z" horiz-adv-x="1000" />

<glyph glyph-name="dyn-scroll" unicode="&#xe825;" d="M15 12h970v648h-970v-648z m872 261c0 9 7 17 16 17 9 0 17-8 17-17s-8-16-17-16-16 7-16 16z m79 367v-303h-46c0-9-8-17-17-17s-16 8-16 17h-381v-202l57 62 15-14-82-88-82 88 15 14 57-62v202h-451v303h931z m-403-187l15 13-82 88-82-88 15-13 57 61v-177h20v177l57-61z m340-100c-9 0-16-7-16-16h33c0 9-8 16-17 16z m-3 63c8 2 17-4 19-12s-3-18-12-20c-8-2-17 3-19 12s3 18 12 20z" horiz-adv-x="1000" />

<glyph glyph-name="dyn-scrolleff" unicode="&#xe826;" d="M987 671h-14-954-5v-649h5l0 0h954l0 0h14v649z m-491-119l-82-88 15-14 57 62v-86h-308l-137 225h910l-137-225h-308v86l57-62 15 14-82 88z m-462 95l140-230h312v-94h-312l-140-272v596z m462-519l82 88-15 14-57-62v147h308l140-273h-915l140 273h307v-147l-57 62-15-14 82-88z m323 195h-313v94h313l142 234h6v-609h-4l-144 281z m110 47c0-9-7-16-16-16-9 0-16 7-16 16 0 9 7 17 16 17s16-7 16-17z m0 64c0-9-7-17-16-17-9 0-16 8-16 17 0 9 7 16 16 16s16-7 16-16z m0-127c0-9-7-16-16-16-9 0-16 7-16 16 0 9 7 16 16 16s16-7 16-16z" horiz-adv-x="1000" />

<glyph glyph-name="dyn-scrollp" unicode="&#xe827;" d="M993 7h-989v666h989v-666z m-969 20h949v626h-949v-626z m898 400c0-9-7-16-16-16s-17 7-17 16c0 9 8 16 17 16s16-7 16-16z m0-63c0-9-7-16-16-16s-17 7-17 16 8 16 17 16 16-7 16-16z m0-63c0-9-7-17-16-17s-17 8-17 17 8 16 17 16 16-7 16-16z m-437 222h20v-379h-20v379z m-72-67l15-13 67 72 67-72 15 13-82 88-82-88z m0-245l15 13 67-72 67 72 15-13-82-88-82 88z" horiz-adv-x="1000" />

<glyph glyph-name="dyn-separators" unicode="&#xe828;" d="M163 486l-122 132 17 16 105-113 114 123 114-123 114 123 114-123 114 123 114-123 105 113 17-16-122-132-114 123-114-123-114 123-114-123-114 123-114-123z m820-210h-73v44h73v-44z m-147 0h-74v44h74v-44z m-147 0h-74v44h74v-44z m-147 0h-74v44h74v-44z m-147 0h-74v44h74v-44z m-148 0h-73v44h74v-44h-1z m-147 0h-73v44h73v-44z m747-303c-35 0-52 27-67 52-16 25-27 40-47 40s-31-15-47-40c-15-24-32-52-67-52s-52 27-67 52c-15 25-26 40-46 40s-32-15-47-40c-15-24-32-52-67-52s-52 27-67 52c-16 25-26 40-47 40s-31-15-46-40c-15-24-32-52-67-52s-52 27-67 52c-16 25-27 40-47 40v24c35 0 52-27 67-52 16-25 26-40 47-40s31 15 46 40c15 24 32 52 67 52s52-27 67-52c16-25 27-40 47-40s31 15 47 40c15 24 32 52 67 52s52-27 67-52c15-25 26-40 46-40s32 15 47 40c15 24 32 52 67 52s52-27 67-52c16-25 26-40 47-40s31 15 46 40c15 24 32 52 67 52v-24c-20 0-31-15-46-40-15-25-32-52-67-52z" horiz-adv-x="1000" />

<glyph glyph-name="dyn-slider" unicode="&#xe829;" d="M0 751v-674h999v674h-999z m159-389l-17-18-88 88 88 88 17-18-70-70 70-70z m712-18l-18 18 70 70-70 70 18 18 87-88-87-88z m-488-382c-17 0-31 14-31 31 0 18 14 32 31 32 18 0 32-14 32-32 0-17-14-31-32-31z m117-13c-25 0-45 20-45 44 0 25 20 45 45 45s44-20 44-45c0-24-19-44-44-44z m116 13c-18 0-32 14-32 31 0 18 14 32 32 32 17 0 31-14 31-32 0-17-14-31-31-31z" horiz-adv-x="1000" />

<glyph glyph-name="dyn-svgmorph" unicode="&#xe82a;" d="M278 53c-158 0-286 128-286 286s128 286 286 286c53 0 105-15 150-43 9 3 18 5 26 5 41 0 85-37 123-74 21 30 37 48 53 48 21 0 44-33 77-85 9-14 19-30 24-34 3-4 20-11 33-15l43 131 50-155h163l-131-96 50-155-131 96-41-30 0-1c3-49 4-72-9-80-3-2-6-3-9-3-13 0-34 9-73 27-11 5-39 18-45 18 0 0 0 0-2 0-8-28-19-59-40-71-8-5-21-8-38-8-18 0-38 3-57 5-15 3-29 5-39 5-2 0-4 0-7-1-50-36-108-56-170-56z m0 539c-140 0-254-113-254-253s114-254 254-254c29 0 59 5 87 15-3 0-5 0-7 0-17 0-29 3-38 8-22 13-32 45-42 77l0 0c-4 14-9 30-14 39-3 4-7 10-11 16-2 3-4 6-5 8-22 32-48 71-48 100 0 45 43 83 78 114l1 0c2 2 4 5 7 7 6 6 13 11 18 16l9 9c21 22 50 51 80 71-36 18-75 27-115 27z m200-457c6 0 13-1 19-2 19-3 38-6 54-6 11 0 20 2 24 4 9 5 15 19 21 35-4-2-7-4-10-5-41-18-61-26-73-26-4 0-7 0-9 2-6 3-8 9-10 16-5-6-11-12-16-18z m-59 414c-32-17-67-53-88-74-3-4-6-7-9-9l0-1c-8-8-18-17-26-24-31-27-70-61-70-93 0-20 26-58 43-84l0-1c8-10 14-20 17-26 7-11 12-28 17-44 8-25 17-55 29-62 5-3 13-4 25-4 0 0 0 0 0 0 16 0 35 3 53 5 6 1 13 2 19 3 26 19 48 43 65 70 0 4 0 7 1 11 1 15 2 42 1 48-3 3-17 18-29 30-43 42-61 63-61 76 0 21 30 34 80 52l0 0c10 4 19 7 27 11-19 47-52 88-94 116z m284-376c25-11 37-15 42-16 2 8 1 30 0 46l-42-30z m-188 7c0-13 0-20 1-23 12 2 48 19 60 24 13 6 22 10 29 13 5 16 10 32 16 43 4 6 8 12 13 20l4 6c15 22 38 55 43 77l-87 63h59c-13 13-27 26-41 38-8 7-18 16-26 24l0 0c-2 2-3 3-4 5-1 1-2 2-3 3-2-3-4-6-6-9-10-15-18-28-24-35 10-29 15-59 15-90-1-57-18-112-49-159z m121 21c9-2 24-9 49-20l41 126-22 16c-9-24-27-52-43-75l-3-5c-5-7-10-14-13-19-3-6-6-14-9-23z m269-3l-37 116 98 71h-117c4-4 6-9 6-15 0-13-18-33-61-76-12-12-26-26-29-30-1-2-1-8 0-25l42 31 98-72z m-159 116l-38-115 35 25c-2 30-2 44 2 51 4 6 12 15 28 31l5 4 2 3c14 13 50 49 52 58-2 7-39 22-59 29l-4-14h-70c7-13 10-25 10-37 0-3 0-5-1-7l38-28z m-318 56c3-8 35-40 49-54l5-6c21-21 30-30 33-35 2-4 3-9 3-17 9 26 13 53 13 81 0 25-4 49-11 73-8-3-18-7-27-10l-3-1c-16-6-59-22-62-31z m251-7c-2 7-6 15-12 23h-19l31-23z m102 58c27-11 49-19 61-29l-35 110-26-81z m-25-18l1 2c-20 8-35 14-42 21-7 6-16 20-27 38-43 71-56 75-58 75-1 0-10-2-37-42l12-12c6-6 14-13 25-23l2-1c19-17 41-36 57-58h67z m-296 156c34-28 61-64 79-105 3 5 6 10 10 15l4 7c3 5 6 9 9 13-23 23-67 65-102 70z" horiz-adv-x="1000" />

<glyph glyph-name="dyn-taxfields" unicode="&#xe82b;" d="M368 694l52-91 7-12h13 531v-590h-941v693l338 0m14 24h-375v-740h987v636h-554l-58 104 0 0z m-21-386v133h-45v32h127v-32h-45v-133h-37z m191 165l161-93-161-93v186z m-86-326c0-47-39-86-86-86-48 0-86 39-86 86 0 48 38 86 86 86s86-38 86-86z m56 82h202v-41h-202v41z m0-61h202v-42h-202v42z m0-61h202v-42h-202v42z" horiz-adv-x="1000" />

<glyph glyph-name="dyn-template" unicode="&#xe82c;" d="M889 720v125h-124v-53h-327v2l-2-2h-2v-2l-270-270h-2v-539h-53v-124h125v43h530v-43h125v124h-52v739h52z m-104 105h84v-85h-84v85z m-316-253v-84h-84v84h84z m-50 177v-157h-54v-54h-157l211 211z m-205-872h-85v84h85v-84z m655 0h-84v84h84v-84z m-52 104h-53v-61h-530v61h-52v538h183v-51h124v124h-51v181h327v-53h52v-739z" horiz-adv-x="1000" />

<glyph glyph-name="dyn-terms" unicode="&#xe82d;" d="M424 698l99-136 7-10h12 420v-562h-929v708h391m12 23h-426v-754h975v608h-443l-106 146 0 0z m-98-497c-23 0-41 19-41 42 0 23 18 41 41 41 23 0 41-19 41-41 0-23-18-42-41-42z m150 80c21 8 45-2 54-23s-2-45-23-54c-21-8-45 2-54 23-9 21 1 45 23 54z m181-80c-23 0-42 19-42 42 0 23 19 41 42 41 23 0 41-19 41-41 0-23-18-42-41-42z" horiz-adv-x="1000" />

<glyph glyph-name="dyn-tilt" unicode="&#xe82e;" d="M824 57l30-127-770 60-66 639 146-16 53-509 607-47z m173-21l-787 62-67 655 710-109 144-608z m-774 75l755-58-137 578-682 104 64-624z" horiz-adv-x="1000" />

<glyph glyph-name="dyn-title-type" unicode="&#xe82f;" d="M973 694v-101h-946v101h946m-394-230v-102h-552v102h552m421 257h-1000v-155h1000v155l0 0z m-395-231h-605v-154h605v154l0 0z" horiz-adv-x="1000" />

<glyph glyph-name="dyn-title" unicode="&#xe830;" d="M0 721h1000v-155h-1000v155z m0-231h605v-154h-605v154z" horiz-adv-x="1000" />

<glyph glyph-name="dyn-tokens" unicode="&#xe831;" d="M788 534h-569v42h569v-42z m-443-42h-126v-42h126v42z m389 0h-125v-42h125v42z m-257-167h-258v-42h258v42z m330 0h-79v-42h79v42z m-508-167h-80v-41h80v41z m489 251h-569v-42h569v42z m-79-167h-490v-42h490v42z m79-84h-179v-41h179v41z m-236 286h-163v55h163v-55z m-150 13h137v29h-137v-29z m289-180h-164v55h164v-55z m-151 13h138v29h-138v-29z m33-180h-241v55h241v-55z m-228 13h215v29h-215v-29z m-109-181h-199v821h199v-68h-117v-684h117v-69z m-186 13h173v42h-117v710h117v43h-173v-795z m917-13h-199v68h117v685h-117v68h199v-821z m-186 13h173v795h-173v-42h117v-710h-117v-43z" horiz-adv-x="1000" />

<glyph glyph-name="dyn-userfields" unicode="&#xe832;" d="M810 192c-39 133-139 217-270 229 80 16 141 88 141 174 0 98-78 177-174 177-96 0-174-79-174-177 0-86 61-158 141-174-131-12-231-95-270-229l-3-13h612l-3 13z m-810-84h159v-39h-56v-166h-47v166h-56v39z m237 14l201-116-201-116v232z m459-116c0-59-49-108-108-108s-108 49-108 108 49 108 108 108c59-1 108-49 108-108z m298 103v-53h-252v53h252z m-252-77h252v-52h-252l0 52 0 0z m0-77h252v-52h-252l0 52 0 0z" horiz-adv-x="1000" />

<glyph glyph-name="dyn-users" unicode="&#xe833;" d="M903 527c53 0 96 43 96 96 0 54-43 97-96 97-54 0-97-44-97-97 0-53 43-96 97-96z m0-85c-54 0-97-43-97-96 0-54 44-97 97-97 53 0 96 44 96 97 0 53-43 96-96 96z m0-278c-54 0-97-43-97-96 0-54 44-97 97-97 53 0 96 44 96 97 0 53-43 96-96 96z m-625 557h-278v-751h345c220 0 378 141 378 364 0 276-193 387-445 387z m39-144c65 0 117-53 117-119 0-66-52-120-117-120-65 0-117 54-117 120 0 66 52 119 117 119z m-210-425c31 106 113 160 210 160 96 0 179-54 210-160h-420z" horiz-adv-x="1000" />

<glyph glyph-name="dyn-vector" unicode="&#xe834;" d="M958 526h42v99h-99v-99h36c-23-208-192-372-401-389-6 18-22 31-42 31-19 0-36-12-41-30-205 22-368 184-391 388h36v99h-98v-99h42c19-185 149-337 321-391h-143v39h-98v-98h99v39h231c5-19 22-33 42-33 21 0 38 14 42 33h256v-39h99v98h-99v-39h-155c172 54 302 207 321 391z m-36 21v57h57v-57h-19-20-18z m-901 0v57h57v-57h-18-20-19z m179-451h-57v57h57v-57z m613 57h57v-57h-57v57z" horiz-adv-x="1000" />

<glyph glyph-name="dyn-waves" unicode="&#xe835;" d="M520 335c157 0 234-35 315-72 48-22 98-45 165-59v23c-62 14-108 35-155 57-80 37-162 74-325 74s-245-37-325-74c-57-26-112-52-195-64v-23c89 13 148 40 205 66 81 37 158 72 315 72z m-520 296c31-15 57-34 83-55 54-42 110-86 223-86 112 0 168 44 222 86 53 41 103 80 204 80s152-39 205-80c20-16 40-31 63-45v21c-16 11-30 22-45 34-54 42-110 86-223 86s-168-44-222-86c-53-41-103-80-204-80-102 0-152 39-205 80-30 23-60 47-101 64v-19z m1004-586c-8 2-16 3-25 5-85 12-131-13-176-37-42-22-81-43-153-33-72 10-105 41-139 74-36 36-74 72-158 84-85 12-131-13-176-37-42-22-81-43-153-33-9 1-18 3-26 5l-3-20c8-2 17-3 26-5 84-12 131 13 175 37 42 22 82 43 154 33 72-10 104-41 139-74 36-36 74-72 158-84 84-12 131 13 175 37 42 22 82 43 154 33 9-1 18-3 26-5l2 20z" horiz-adv-x="1000" />

<glyph glyph-name="dyn-woo_addinfo" unicode="&#xe836;" d="M971 793h-942c-9 0-16-7-16-15v-849c0-9 7-16 16-16h942c9 0 16 7 16 16v165c0 9-7 16-16 16-9 0-16-7-16-16v-150h-911v694h911v-481c0-9 7-16 16-16 9 0 16 7 16 16v621c0 8-7 15-16 15z m-927-31h575v-93h-575v93z m606-93v93h305v-93h-305z m153 63c-9 0-16-7-16-16 0-9 7-17 16-17 9 0 17 7 17 17 0 9-8 16-17 16z m-85 0c-9 0-16-7-16-16 0-9 7-17 16-17s17 7 17 17c0 9-7 16-17 16z m170 0c-9 0-16-7-16-16 0-9 7-17 16-17s17 7 17 17c0 9-8 16-17 16z m-561-198l125-125c6-6 16-6 22 0 6 6 6 16 0 22l-136 136c-6 6-16 6-22 0l-92-91c-3-3-5-7-5-11 0-4 2-8 5-11l60-60c0 0 76-76 76-76 3-3 7-5 11-5s8 2 11 5c6 6 6 16 0 22l-5 5 36 36c6 6 6 16 0 22-6 6-16 6-22 0l-36-36-38 38 36 35c6 6 6 16 0 22-6 6-16 6-22 0l-36-35-38 38 70 69 0 0z m215-398c0 0 120-120 120-120 3-3 7-5 11-5s8 2 11 5l92 91c6 6 6 16 0 22l-136 136c-6 6-16 6-22 0-6-6-6-16 0-22l125-125-70-69-38 38 36 35c6 6 6 16 0 22-6 6-16 6-22 0l-36-35-38 38 36 35c6 6 6 16 0 22-6 6-16 6-22 0l-36-35-5 5c-6 6-16 6-22 0-6-6-6-16 0-22l16-16 0 0z m-306-124c2 0 4 0 6 1l136 58c0 0 1 0 1 0 0 0 0 0 0 1 0 0 1 0 1 0 0 0 0 0 0 0 1 0 1 1 1 1 0 0 0 0 1 0 0 0 0 0 0 0 1 1 1 1 1 1l336 336c0 0 40 40 40 40 13 13 20 31 20 50 0 19-7 36-20 50-14 13-31 20-50 20-19 0-37-7-50-20l-40-40c0 0-335-335-335-335-1-1-1-1-1-1 0-1-1-1-1-1 0 0 0 0 0-1 0 0 0 0 0 0 0 0-1-1-1-1 0 0 0 0 0-1 0 0 0 0 0 0l0 0c0 0-58-136-58-136-3-6-2-13 3-17 2-3 6-5 10-5l0 0z m394 465l56-56-314-313-56 56 314 313z m51 51c7 7 17 11 28 11 10 0 20-4 28-11 7-8 11-18 11-28 0-11-4-21-11-28l-29-29-56 56 29 29 0 0z m-381-392l45-45-79-34 34 79z" horiz-adv-x="1000" />

<glyph glyph-name="dyn-woo_addtocart" unicode="&#xe837;" d="M793-117c-54 0-98 44-98 98 0 19 6 37 16 53l7 11h-274l7-11c10-16 16-35 16-53 0-54-44-98-98-98-54 0-97 44-97 98 0 19 5 38 16 54l6 9-11 1c-52 4-91 47-91 98v588l-134 56c-5 2-8 6-10 10-1 4-1 8 0 12 3 7 9 11 16 11 2 0 4-1 6-2l143-59c1-1 2-2 3-2l1-1 1 0 1-2 0 0c0 0 1 0 1 0 0-2 1-3 2-3l0 0c0-1 0-1 1-1 0 0 0 0 0 0 0 0 0-1 0-1 0 0 0 0 0 0v-1l2-2c0 0 0 0 0 0 0 0 0 0 0 0 0-1 0-1 0-1v-2l0-1c0 0 0 0 0 0v-434c0-36 29-65 65-65h527c36 0 65 29 65 65v222c0 10 8 17 17 17 9 0 17-7 17-17v-222c0-54-44-98-99-98h-526c-19 0-39 6-55 16l-10 7v-90c0-36 29-65 65-65h502c54 0 98-43 98-97s-44-98-98-98z m-1 162c-35 0-64-29-64-64s29-64 64-64 64 29 64 64-29 64-64 64z m-424 0c-35 0-64-29-64-64s29-64 64-64 64 29 64 64-28 64-64 64z m185 307c0 1-1 1-1 1-1 0-1 0-2 0l0 1h-1l-1 0h0l-1 0h-1c0 0 0 1 0 1-1 0-1 0-2 1 0 0 0 0-1 1l-95 94c-7 7-7 17 0 24 3 3 7 5 12 5s9-2 12-5l64-64v341c0 10 8 17 17 17s17-7 17-17v-341l67 64c3 4 7 5 12 5s8-1 12-5c3-3 5-7 5-12s-2-8-5-12l-94-93c0 0 0-1-1-1l0 0 0-1c-1 0-1 0-1 0 0-1-1-1-1-1 0 0-1 0-1-1 0 0 0 0 0 0 0 0-1 0-1 0 0 0 0 0-1 0 0 0 0 0 0-1-1 0-2 0-2 0 0 0 0 0-1 0 0 0-1-1-1-1-1 0-1 0-2 0 0 0 0 0 0 0h-1l0 0c0 0 0 0-1 0z" horiz-adv-x="1000" />

<glyph glyph-name="dyn-woo_cart" unicode="&#xe838;" d="M172-56c-23 0-42 18-42 41 0 23 19 42 42 42s42-19 42-42c0-23-19-41-42-41z m0 60c-10 0-18-9-18-19 0-10 8-18 18-18s18 8 18 18c1 11-8 19-18 19z m437-121c-57 0-102 46-102 102 0 28 11 54 30 73l6 6h-305l6-6c20-19 30-45 30-73 0-56-45-102-102-102-56 0-102 46-102 102s46 102 102 102h459c14 0 26 12 26 26s-12 26-26 26h-549c-23 0-42 19-42 42 0 18 11 33 28 39l2 1v273h196v116c0 28 15 52 40 65l50 25v26h-45v84h204v-84h-45v-26l51-25c24-13 39-37 39-65v-270l93 307c13 44 53 73 98 73h174c23 0 42-19 42-42s-19-42-42-42h-173c-8 0-15-5-18-13l-98-336-22 6 98 337c5 17 21 30 40 30h71v36h-72c-35 0-65-22-75-55l-134-441h-460c-10 0-19-9-19-19 0-10 9-18 19-18h549c27 0 49-22 49-49 0-14-6-28-17-37l-3-3 4-3c29-19 46-51 46-85 1-57-45-103-101-103z m0 181c-44 0-79-35-79-79 0-43 35-78 79-78 43 0 78 35 78 78 0 44-35 79-78 79z m-437 0c-43 0-79-35-79-79 0-43 36-78 79-78s79 35 79 78c0 44-36 79-79 79z m223 159h130l12 40v348c0 18-11 35-27 43l-64 32v40h-67v-40l-63-32c-17-8-27-25-27-43v-117h105v-271z m-301 0h277v187h-277v-187z m240 211h37v36h-37v-36z m-60 0h37v36h-37v-36z m-60 0h37v36h-37v-36z m-60 0h36v36h-36v-36z m-60 0h36v36h-36v-36z m752 225h79c10 0 18 9 18 19s-8 18-18 18h-79v-37z m-512 91h158v37h-158v-37z m572-520v23h-98v-23h98z m-90-91v24h-84v-24h84z m60-105v23h-98v-23h98z m-267-90c-23 0-42 18-42 41 0 23 19 42 42 42 23 0 41-19 41-42 1-23-18-41-41-41z m0 60c-10 0-19-9-19-19 0-10 9-18 19-18 10 0 18 8 18 18 0 11-8 19-18 19z m-305 331v23h-144v-23h144z m0-60v23h-144v-23h144z m196 241v85c0 11-6 20-15 24l-18 10-11-21 21-11v-87h23z m467-286v23h-24v-23h24z m-91-91v24h-23v-24h23z m61-105v23h-24v-23h24z m-437 421v24h-23v-24h23z" horiz-adv-x="1000" />

<glyph glyph-name="dyn-frontendform" unicode="&#xe839;" d="M773 599v-698h-743v698h743m27 27h-797v-752h797v752l0 0z m99 201v-104h101v-27h-101v-105h-28v104h-101v27h101v105h28v0z m-213-514h-569v150h569v-150z m-542 27h515v96h-515v-96z m529-139h-542v-62h542v62z m0-138h-542v-27h542v27z" horiz-adv-x="1000" />

<glyph glyph-name="dyn-woo_image" unicode="&#xe83a;" d="M571 573v-135c0-8 7-15 16-15s16 7 16 15v135c0 9-7 16-16 16s-16-7-16-16z m408-639l-122 121c-3 3-7 5-11 5-4 0-8-2-11-5l-11-11-22 22c30 36 49 82 49 132 0 111-91 202-202 202s-202-91-202-202 90-202 202-202c50 0 96 18 131 48l22-22-11-11c-6-6-6-16 0-22l122-121c3-3 7-5 11-5s8 2 11 5l44 44c3 3 4 7 4 11s-1 8-4 11z m-501 264c0 94 77 171 171 171s171-77 171-171-77-171-171-171-171 77-171 171z m446-297l-99 99 11 11c0 0 11 11 11 11l99-99-22-22z m-439 126h-444v779h407v-170c0-9 7-16 15-16h170v-174c0-8 7-15 16-15s16 7 16 15v190c0 0 0 1 0 1 0 1 0 1-1 1 0 0 0 1 0 1 0 0 0 1 0 1 0 0 0 0 0 0 0 0 0 1 0 1 0 0 0 0 0 0-1 1-1 1-1 2 0 0 0 0 0 0 0 0 0 1-1 1 0 0 0 0 0 0 0 1 0 1 0 1 0 0 0 1-1 1 0 0 0 0-1 1 0 0 0 0 0 0l-186 185c0 0 0 0 0 0 0 0 0 1-1 1 0 0 0 0 0 0 0 1-1 1-1 1 0 0 0 0 0 0-1 1-1 1-1 1 0 0 0 0-1 0 0 0 0 0-1 1 0 0 0 0 0 0 0 0-1 0-1 0 0 0 0 0 0 0-1 0-1 0-2 0 0 0 0 0 0 0 0 0-1 0-1 0-1 0-1 0-2 0h-437c-9 1-16-6-16-15v-810c0-8 7-15 16-15h459c8 0 15 7 15 15 0 9-7 16-15 16l0 0z m-6 757l132-133h-132c0 0 0 133 0 133z m170-446c-77 0-140-63-140-140s63-140 140-140 140 63 140 140-63 140-140 140l0 0z m0-249c-60 0-109 49-109 109s49 108 109 108 109-48 109-108-49-109-109-109z m-407 351l131-138c3-3 7-5 12-5s8 2 11 5l91 96 8-8c6-6 15-6 22 0 6 6 6 15 0 22l-19 20c-3 3-7 5-11 5-4 0-8-2-11-5l-91-96-132 138c-3 3-7 5-11 5-4 0-8-2-11-5l-155-163c-3-3-4-7-4-11v-226c0-9 7-16 15-16h346c9 0 16 7 16 16s-7 15-16 15h-330v205l139 146z m77 64c0-36 29-66 65-66s66 30 66 66-30 65-66 65-65-29-65-65z m100 0c0-19-16-35-35-35s-34 16-34 35 15 34 34 34c19 0 35-16 35-34z m-18 271h-313c-9 0-16-7-16-16v-369c0-9 7-16 16-16s15 7 15 16v353h298c9 0 16 7 16 16s-7 16-16 16z" horiz-adv-x="1000" />

<glyph glyph-name="dyn-woo_meta" unicode="&#xe83b;" d="M62-126c-10 0-18 8-18 18v673c0 4 1 8 4 11l189 240c3 4 8 6 14 6h496c5 0 10-2 14-6l189-240c1-2 4-6 3-11l0 0v-673c0-10-8-18-18-18h-873z m18 36h837v633h-837v-633z m437 669h384l-163 207h-221v-207z m-421 0h385v207h-222l-163-207z m355-461c-5 0-10 2-13 5l-87 87c-7 7-7 18 0 25 4 4 8 6 13 6s9-2 13-6l73-73 170 170c4 4 8 6 13 6 5 0 10-2 13-6 7-7 7-19 0-26l-182-183c-4-3-8-5-13-5z" horiz-adv-x="1000" />

<glyph glyph-name="dyn-woo_price" unicode="&#xe83c;" d="M55-88c-7 0-13 6-13 13 0 7 6 13 13 13h206v68h-206c-7 0-13 6-13 13 0 8 6 14 13 14h206v67h-206c-6 0-11 4-13 9-2 5 0 11 4 15l207 189c3 3 7 4 9 4h690c6 0 11-4 13-9 2-5 0-11-4-15l-208-189c-3-3-6-4-9-4h-176v-67h193l181 163c3 2 6 3 9 3 4 0 8-1 10-4 2-3 4-6 4-10-1-3-2-6-5-9l-184-167c-3-2-6-3-9-3h-199v-68h208l167 149c3 3 6 4 9 4 4 0 8-2 11-5 2-2 3-6 3-9 0-4-2-7-5-9l-170-153c-3-2-6-3-9-3h-727z m233 26h253v162h-253v-162z m280 189h171l178 163h-171l-178-163z m-263 1h223l178 162h-223l-178-162z m-215 0h175l178 162h-175l-178-162z m416 268c-7 0-13 6-13 13v49h-63c-7 0-13 6-13 13s6 13 13 13h105c28 0 51 23 51 51s-23 51-51 51h-58c-43 0-77 34-77 77 0 43 35 78 77 78h16v47c0 8 6 14 13 14s14-6 14-14v-47h60c7 0 13-6 13-13 0-8-6-14-13-14h-103c-28 0-51-22-51-50s23-51 51-51h58c43 0 78-35 78-78 0-42-35-77-77-77l-17 0v-49c0-7-6-13-13-13z" horiz-adv-x="1000" />

<glyph glyph-name="dyn-woo_ratings" unicode="&#xe83d;" d="M500 532c84 0 152 69 152 153 0 83-68 152-152 152s-152-69-152-153c0-83 68-152 152-152z m0 274c67 0 121-55 121-122s-54-121-121-121-121 54-121 121 54 122 121 122z m0-335c123 0 224-96 232-217h-357c-8 0-15-7-15-16 0-8 7-15 15-15h373c8 0 15 7 15 15 0 146-118 264-263 264s-264-118-264-264c0-8 7-15 16-15h61c9 0 16 7 16 15 0 9-7 16-16 16h-45c8 121 109 217 232 217l0 0z m-195-411l-84 14-40 76c-2 5-8 8-13 8-6 0-11-3-14-8l-40-76-84-14c-6-1-11-5-12-11-2-5-1-11 3-15l60-62-12-85c-1-5 1-11 6-14 5-4 11-4 16-2l77 39 76-39c3-1 5-1 7-1 4 0 7 1 9 3 5 3 7 9 7 14l-13 85 60 62c4 4 5 10 4 15-2 6-7 10-13 11l0 0z m-79-71c-3-4-5-9-4-13l9-64-57 29c-4 2-9 2-14 0l-57-29 10 64c0 4-1 9-5 13l-44 45 63 11c4 1 9 4 11 8l29 57 30-57c2-4 6-7 11-8l63-11c0 0-45-45-45-45z m412 71l-85 14-39 76c-3 5-8 8-14 8-6 0-11-3-14-8l-39-76-85-14c-6-1-10-5-12-11-2-5 0-11 4-15l60-62-13-85c-1-5 2-11 6-14 5-4 11-4 16-2l77 39 77-39c2-1 4-1 7-1 3 0 6 1 9 3 4 3 7 9 6 14l-13 85 60 62c4 4 6 10 4 15-2 6-6 10-12 11l0 0z m-79-71c-3-4-5-9-4-13l9-64-57 29c-2 1-5 1-7 1s-5 0-7-1l-58-29 10 64c0 4-1 9-5 13l-44 45 63 11c4 1 9 4 11 8l29 57 30-57c2-4 6-7 11-8l63-11-44-45 0 0z m424 60c-2 6-7 10-12 11l-85 14-40 76c-2 5-8 8-13 8s-11-3-14-8l-40-76-84-14c-6-1-11-5-12-11-2-5-1-11 3-15l60-62-12-85c-1-5 1-11 6-14 5-4 11-4 16-2l77 39 76-39c3-1 5-1 7-1 4 0 7 1 9 3 5 3 7 9 7 14l-13 85 60 62c4 4 5 10 4 15l0 0z m-92-60c-3-4-5-9-4-13l9-64-57 29c-2 1-5 1-7 1-2 0-5 0-7-1l-57-29 9 64c1 4-1 9-4 13l-45 45 63 11c5 1 9 4 11 8l30 57 29-57c3-4 7-7 11-8l63-11-44-45 0 0z m-391 626c20 0 39 8 53 24 5 6 5 16-2 21-6 6-16 5-22-1-7-9-18-14-29-14-11 0-22 5-29 14-6 6-16 7-22 1-6-5-7-15-2-21 14-16 33-24 53-24l0 0z" horiz-adv-x="1000" />

<glyph glyph-name="dyn-woo_salesflash" unicode="&#xe83e;" d="M629-110c-31 0-60 12-82 34l-358 358c-20 20-30 47-28 75l7 118-2 1c-24 11-47 27-67 46-35 35-56 79-61 124-5 46 9 89 40 119 26 26 62 40 102 40 51 0 102-22 142-62 7-7 7-20 0-28-4-4-9-6-14-6-6 0-11 2-14 6-32 32-74 50-113 50-30 0-55-10-74-28-22-22-32-53-28-87 4-36 21-71 50-100 11-11 24-21 38-29l5-3 7 98c0 26 21 47 48 49l259 17c2 1 4 1 6 1 26 0 50-10 68-29l359-358c22-22 34-51 34-82 0-31-12-61-34-82l-208-209c-22-22-51-33-82-33z m-429 464c-1-16 5-32 17-44l358-358c15-15 34-23 54-23s39 8 54 23l208 208c14 14 22 33 22 53 0 21-8 40-22 54l-359 359c-10 11-25 17-40 17 0 0-1 0-2-1 0 0-1 0-1 0h-1l-259-17c-7-1-12-6-12-12l-7-110 3-1c5-1 9-2 14-2 4 0 9-1 13-1 30 0 55 10 74 29 4 4 9 6 14 6 5 0 10-2 14-6 8-8 8-21 0-28-26-27-62-41-102-41-5 0-10 1-17 1-4 1-8 1-12 2l-4 1-7-109z" horiz-adv-x="1000" />

<glyph glyph-name="dyn-woo_searchshop" unicode="&#xe83f;" d="M822 8l-9-7c-31-23-67-35-106-35-17 0-34 3-50 8l-2 0h-493v387l-5 4c-33 26-51 64-51 106v3l61 139h70v130h483v-130h70l61-139v-3c0-42-18-80-51-106l-5-4v-63l7-4c52-33 83-89 83-150 0-39-12-75-35-106l-7-9 133-133-21-21-133 133z m-115 283c-81 0-147-66-147-147 0-82 66-148 147-148 82 0 148 66 148 148 0 81-66 147-148 147z m-515-287h402l-19 22c-29 33-45 74-45 118 0 84 60 157 143 174l50 9-48 16c-26 9-50 26-66 49l-11 15-11-15c-25-35-65-55-108-55-43 0-84 20-109 55l-11 15-10-15c-26-35-66-56-109-56-11 0-21 2-32 4l-16 4v-340z m426 434c14-43 54-72 99-72s86 29 100 72l5 18h-210l6-18z m-239 0c14-43 54-72 100-72 45 0 85 29 99 72l6 18h-210l5-18z m-238 0c14-43 54-72 99-72 45 0 85 29 99 72l6 18h-210l6-18z m2 48h671l-43 97h-584l-44-97z m124 127h424v101h-424v-101z" horiz-adv-x="1000" />

<glyph glyph-name="dyn-woo_shareshop" unicode="&#xe840;" d="M787-110c-22 0-42 9-58 24-11 11-19 25-22 41l0 2h-309l-1-2c-3-16-11-30-22-41-15-15-36-24-58-24-22 0-42 9-58 24-15 15-24 36-24 58s9 42 24 58c8 8 17 14 27 18l3 1-120 674-105 53c-3 1-6 4-7 8-1 4-1 8 1 11 2 5 7 8 13 8 2 0 4 0 6-1l110-55c5-2 8-6 9-11l24-134 7-37 75-423h201l1 0c1 0 2 0 2 0h307c12 0 23 5 31 13 9 9 16 23 19 39l56 306c0 2 0 3 0 5 0 10-4 21-13 30-8 9-19 16-30 18l-1 0c-2 0-4 0-7 0h-31c-8 0-14 7-14 15s6 15 14 15h31c4 0 8-1 12-1 17-3 34-13 47-27 13-14 21-32 21-50 0-3-1-7-1-10l-56-306c-4-22-14-41-27-55-15-14-32-21-52-21h-505l11-59 2 0c21-1 40-9 55-24 12-11 19-25 22-41l1-2h309l0 2c4 16 11 30 22 41 16 15 36 24 58 24 22 0 43-9 58-24s24-36 24-58c0-22-8-42-24-58-15-15-36-24-58-24z m0 135c-14 0-27-6-37-16-10-9-15-23-15-37 0-14 5-27 15-37 10-10 23-16 37-16 14 0 27 6 38 16 10 10 15 23 15 37 0 14-5 27-15 37-10 10-23 16-38 16z m-470 0c-14 0-27-6-37-16-10-10-16-23-16-37 0-14 6-27 16-37 10-10 23-16 37-16 14 0 27 6 37 16 10 10 16 23 16 37 0 14-6 27-16 37-10 10-23 16-37 16z m397 279c-55 0-100 44-100 99 0 6 1 11 1 16l1 2-158 82-2-2c-19-20-45-31-73-31-55 0-100 45-100 100s45 99 100 99c28 0 54-11 73-31l2-2 158 82-1 2c-1 5-1 10-1 16 0 55 45 99 100 99s99-44 99-99-44-100-99-100c-38 0-73 22-90 55l-1 3-152-79 2-3c6-13 9-28 9-43 0-14-3-29-9-42l-2-3 152-79 1 3c18 34 52 55 90 55 55 0 99-45 99-100 0-55-44-99-99-99z m0 175c-42 0-75-34-75-75s33-75 75-75 75 33 75 75-34 75-75 75z m-331 166c-41 0-75-33-75-75s34-75 75-75 75 34 75 75-34 75-75 75z m331 166c-42 0-75-33-75-75s33-75 75-75 75 34 75 75-34 75-75 75z" horiz-adv-x="1000" />

<glyph glyph-name="dyn-woo_shortdesc" unicode="&#xe841;" d="M847 725h-288v31c0 29-23 52-52 52-29 0-53-23-53-52v-31h-288c-54 0-99-44-99-99v-376c0-55 45-99 99-99h288v-159h-154c-29 0-53-24-53-53 0-29 24-52 53-52h414c29 0 53 23 53 52s-24 53-53 53h-154v159h287c55 0 99 44 99 99v376c0 54-44 99-99 99z m-366 30c0 15 12 26 26 26 14 0 25-12 25-26v-28h-51v28z m233-790c14 0 25-12 25-26 0-14-11-25-25-25h-414c-15 0-26 11-26 25 0 15 12 26 26 26h154 105 155z m-233 27v157h52v-157l-52 0 0 0z m438 258c0-40-32-72-72-72h-681c-39 0-72 32-72 72v376c0 39 32 72 72 72h681c40 0 72-32 72-72l0-376 0 0z m-178 319h-529c-7 0-13-6-13-13 0-7 6-13 13-13h529c7 0 13 6 13 13 0 7-6 13-13 13z m0-102h-529c-7 0-13-6-13-14 0-7 6-13 13-13h529c7 0 13 6 13 13 0 8-6 14-13 14z m-155-108h-374c-7 0-13-6-13-13 0-8 6-14 13-14h374c7 0 13 6 13 14 0 7-6 13-13 13z" horiz-adv-x="1000" />

<glyph glyph-name="dyn-woo_stock" unicode="&#xe842;" d="M421-70c-57 0-104 45-106 102-2 28 8 55 28 76 6 7 13 13 21 18l7 4-172 517-168 85c-8 4-11 14-7 23 3 5 8 9 15 9 3 0 5-1 8-2l174-87c4-2 7-6 8-10l174-522h7c2 0 3 0 4 0 1 0 2 0 3 0h4c37 0 71-18 90-50l4-7 439 146c2 0 4 1 5 1 8 0 14-5 17-12 3-9-2-19-12-22l-438-145v-7c0-1 0-3 1-4 0 0 0-1 0-1l0-1c2-58-43-108-102-110h-4z m-3 179c-19-1-37-9-50-24-13-14-20-33-19-51 2-39 33-69 72-69 1 0 2 0 3 0 19 0 37 9 50 23 13 14 20 32 19 51-1 39-33 70-72 70l-3 0 0 0z m78 61c-7 0-14 5-16 12l-137 413c-2 4-1 9 1 13 2 4 5 7 10 8l208 69 208 70c2 0 4 0 6 0 2 0 5 0 7-1 4-3 8-6 9-10l137-413c1-5 1-10-1-13-2-4-6-8-10-9l-417-138c-1 0-3-1-5-1z m-115 419l126-380 384 127-126 381-176-59 36-109c3-9-2-19-11-22l0 0c-1 0-3 0-5 0-7 0-14 4-16 11l-36 110-176-59z" horiz-adv-x="1000" />

<glyph glyph-name="dyn-repeater" unicode="&#xe843;" d="M25 823h952v-286h-952v286z m865-350v-246h-779v246h779m20 20h-819v-286h819v286l0 0z m-383-56v-77h74v-19h-74v-78h-21v78h-74v19h74v77h21z m-349-267v-246h645v246h-645z m389-133h-40v-44h-21v44h-41v20h41v43h21v-43h40v-20z" horiz-adv-x="1000" />

<glyph glyph-name="dyn-wooc" unicode="&#xe844;" d="M834 447c-17-6-27-22-35-36-19-33-24-76-7-111 5-9 13-19 25-20 12 0 23 8 32 16 19 19 27 45 30 71 3 25-1 51-15 71-6 9-19 13-30 9z m-256 0c-15-5-25-19-33-32-21-33-27-77-10-113 4-10 11-20 22-22 12-2 23 5 32 12 19 16 28 40 32 64 5 27 3 58-13 81-6 10-19 14-30 10z m422 74c1 27-11 54-31 71-17 16-41 25-64 24-271 0-542 0-813 0-36 0-71-23-84-56-7-14-8-30-8-45 0-102 0-204 0-306 1-47 41-88 88-90 130 0 261 1 391 0 59-32 117-66 176-98-13 33-27 65-40 98 99 0 198 0 297 1 47 1 88 43 88 90 0 103 0 207 0 311z m-591-318c1-15-6-34-22-37-16-3-30 7-39 18-45 47-70 109-88 170-18-36-37-72-54-108-13-25-26-50-46-69-8-8-22-16-33-7-16 14-20 36-27 56-26 90-41 183-56 276-3 15 3 34 18 40 13 4 29 5 39-4 8-7 10-17 11-26 11-72 23-143 41-214 29 56 59 113 88 169 5 8 10 16 18 22 11 7 27 6 36-4 7-8 10-19 12-29 9-46 21-92 38-137 7 67 17 134 41 197 5 12 10 26 19 36 15 16 44 11 55-7 6-9 6-22 1-32-21-41-29-87-37-132-10-59-18-118-15-178z m257 79c-12-23-28-45-50-58-33-20-78-18-110 3-25 18-40 48-45 77-12 67 8 142 59 189 15 13 33 21 52 24 32 4 66-7 88-31 18-20 28-46 31-73 5-45-3-92-25-131z m257 1c-12-24-29-46-52-60-32-19-74-17-105 2-21 12-35 34-44 57-22 71-3 153 48 206 16 15 36 26 57 28 31 4 65-5 87-29 20-21 30-49 33-77 5-44-3-89-24-127z" horiz-adv-x="1000" />

<glyph glyph-name="dynamic_posts" unicode="&#xe845;" d="M278 722h-278v-751h346c220 0 377 141 377 364 0 276-193 387-445 387z m137-368l0-56h-74l0-86c0-13-11-94-24-94-13 0-23 81-23 94v86l-75 0 0 56c27 5 47 29 47 57v23c0 29-20 53-47 58v57l195 0 0-56c-26-6-47-30-47-58v-23c1-29 21-52 48-58z m488 174c54 0 97 43 97 97 0 53-43 96-97 96-53 0-96-43-96-96 0-54 43-97 96-97z m0-85c-53 0-96-43-96-97 0-53 43-96 96-96 54 0 97 43 97 96 0 54-43 97-97 97z m0-278c-53 0-96-43-96-97 0-53 43-96 96-96 54 0 97 43 97 96 0 54-43 97-97 97z" horiz-adv-x="1000" />

<glyph glyph-name="dyn-woo_user" unicode="&#xe846;" d="M921-143c44 0 79 35 79 79v200c0 8-6 14-13 14h-92l-40 78c-2 4-7 7-12 7-2 0-4-1-6-1-7-4-9-12-6-18l34-66h-146l34 66c4 6 1 14-5 18-2 1-4 1-6 1-5 0-10-3-12-7l-39-75-1-3h-11l1 7c1 4-1 9-3 12-15 15-33 26-52 33l-158 52 9 7c42 31 67 81 67 133v93c0 91-74 166-166 166h-23c-92 0-166-75-166-166v-93c0-51 24-99 65-131l9-7-163-54c-52-17-88-66-88-121v-211c0-7 6-13 14-13h896z m-310 266h64l-8-16c-4-7-1-15 5-18 2-1 4-1 6-1 5 0 10 2 12 7l15 28h173l15-28c2-5 7-7 12-7 2 0 4 0 6 1 3 2 5 4 6 8 1 3 1 7-1 10l-8 16h65v-187c0-29-24-52-52-52h-259c-28 0-52 23-52 52v187z m-487-126v-114h-87v197c0 44 28 82 69 96l149 49v-26c0-60 49-108 109-108 60 0 108 48 108 108v24l142-47c11-4 20-9 29-16l15-11h-61c-7 0-13-6-13-13v-201c0-15 4-30 12-42l6-10h-451v114c0 7-6 13-13 13s-14-5-14-13z m158 246l8-3c20-8 41-12 63-12h23c19 0 39 3 57 10l5 2 2-4c1-1 2-2 3-3l2-1v-32c0-45-36-82-81-82-45 0-82 37-82 82v43z m45 247l4-4c32-33 76-51 122-51 18 0 36 3 54 9l8 3v-53c0-77-62-139-139-139h-23c-77 0-139 62-139 139v42l5 0c40 5 75 22 103 50l5 4z m-11 29c-24-30-57-50-95-55l-7-1v23c0 77 62 139 139 139h23c77 0 139-62 139-139v-9l-4-2c-18-8-38-12-58-12-46 0-88 20-116 56-2 4-6 6-10 6-5-1-9-3-11-6z m489 75l1 4 4 2c23 7 38 27 38 50 0 29-25 52-56 52-16 0-30 12-30 26s14 26 30 26c16 0 30-12 30-26 0-7 6-13 13-13 7 0 13 6 13 13 0 23-15 43-38 50l-5 1 0 5c0 7-6 13-13 13-7 0-13-6-13-13l0-5-5-1c-23-7-38-27-38-50 0-29 25-53 56-53 16 0 30-11 30-25s-14-26-30-26c-16 0-30 11-30 26 0 7-6 13-13 13-7 0-13-6-13-13 0-23 15-43 38-50l4-2 1-4c0-7 6-13 13-13 7 0 13 6 13 13z m145 94c0 87-71 158-158 158-88 0-159-71-159-158s71-159 159-159c87 1 158 72 158 159z m-27 0c0-73-59-132-131-132-72 0-131 59-131 132s59 131 131 131c72 0 131-59 131-131z m-118-426v187c0 7-6 13-13 13-7 0-13-6-13-13v-187c0-8 6-14 13-14 7 0 13 6 13 14z m-93-299v54c0 7-6 13-13 13-7 0-13-6-13-13v-54c0-7 6-13 13-13 7 0 13 6 13 13z m93 0v54c0 7-6 13-13 13-7 0-13-6-13-13v-54c0-7 6-13 13-13 7 0 13 6 13 13z m93 0v54c0 7-6 13-13 13-7 0-13-6-13-13v-54c0-7 6-13 13-13 7 0 13 6 13 13z" horiz-adv-x="1000" />

<glyph glyph-name="dyn-woo_tabs" unicode="&#xe847;" d="M571 50c0-25-19-45-44-45-24 0-44 20-44 45 0 24 20 44 44 44 24 0 44-20 44-44z m-207 44c-24 0-44-20-44-44 0-25 20-45 44-45s45 20 45 45c0 24-20 44-45 44z m-86 607h-117c-9 0-17-8-17-17s8-17 17-17h117c10 0 17 8 17 17s-7 17-17 17z m177-34h117c9 0 17 8 17 17s-8 17-17 17h-117c-10 0-17-8-17-17s7-17 17-17z m262-282h109c9 0 17 8 17 17s-8 17-17 17h-109c-9 0-17-7-17-17s8-17 17-17z m137 316h-117c-10 0-17-8-17-17s7-17 17-17h117c9 0 17 8 17 17s-8 17-17 17z m-231-289c3-4 4-10 2-15l-54-163c-2-7-9-12-16-12h-218c-20 0-37-16-37-37 0-20 17-37 37-37h218c9 0 17-7 17-17s-8-17-17-17h-218v0c-39 0-71 32-71 71 0 23 11 45 29 58l5 4-32 193h-94c-9 0-17 7-17 17s8 17 17 17h109c8 0 16-6 17-15l7-40h302c6 0 11-2 14-7z m-38-27h-273l22-128h208l43 128z m132-325h109c9 0 17 7 17 17s-8 17-17 17h-109c-9 0-17-8-17-17s8-17 17-17z m236 695v-763c0-63-32-95-71-95h-764v0c-39 0-71 32-71 94v764c0 16 32 48 71 48h764c39 0 71-32 71-48z m-568 14v-161h254v161c-110 0-138 0-254 0z m-304-161h277v161c-104 0-240 0-240 0-20 0-37-17-37-37v-124z m838-35h-252-28-254-27-277v-605c0-20 17-37 37-37h764c20 0 37 17 37 37v605z m0 159c0 20-17 37-37 37 0 0-128 0-215 0v-161h252v124z m-202-564h109c9 0 17 8 17 17s-8 17-17 17h-109c-9 0-17-8-17-17s8-17 17-17z m0 109h109c9 0 17 7 17 17 0 9-8 17-17 17h-109c-9 0-17-8-17-17 0-10 8-17 17-17z" horiz-adv-x="1000" />

<glyph glyph-name="dyn-background_particles" unicode="&#xe848;" d="M254 666c0-20-16-36-36-36s-35 16-35 36 16 36 35 36 36-16 36-36z m242-58c-87 0-158-71-158-158s71-158 158-158 159 70 159 158-72 158-159 158z m-357-189c-31 0-57-26-57-57 0-31 26-56 57-56s56 25 56 56c0 31-25 57-56 57z m672-183c-43 0-77-35-77-77 0-43 34-77 77-77 42 0 76 34 76 77 1 42-34 77-76 77z m33 566l-118-86 45-140h146l46 140-119 86z m-33-350l-36-26 14-41h44l13 41-35 26z m-288 379l-73-53 28-86h90l28 86-73 53z m-443-797l-43-7 31-29-7-43 38 20 37-20-7 43 31 29-43 7-18 38-19-38z m273 154l-75-11 55-52-13-75 67 35 68-35-13 75 54 52-75 11-34 69-34-69z m184-222l-53-8 38-37-9-52 47 25 47-25-9 52 38 37-53 8-23 48-23-48z" horiz-adv-x="1000" />

<glyph glyph-name="dyn-woo_checkout" unicode="&#xe849;" d="M942-100l0 0-450 0c-7 0-12 5-12 12v438c0 7 5 12 12 12h453c7 0 12-5 12-12v-439c0-6-5-11-12-11h-3z m-10 23v317l-5-3c-7-3-14-5-21-5-13 0-26 6-35 15l-2 3-3-3-1-1c-9-9-21-14-34-14-14 0-26 6-35 15l-3 3-2-3-1-1c-9-9-22-14-34-14-14 0-26 6-36 15l-2 3-2-3-1-1c-10-9-22-14-35-14-13 0-26 6-35 15l-2 3-3-3-1-1c-9-9-21-14-34-14-13 0-26 6-35 15l-3 3-2-3c-9-9-22-15-35-15-7 0-14 2-21 5l-5 3v-317h37v170c0 7 5 12 11 12h120c7 0 12-5 12-12v-170h248z m-271 0v158h-97v-158h97z m220 359c0-15 12-26 26-26s26 11 26 26v56h-52v-56z m-75 0c0-15 11-26 26-26s26 11 26 26v56h-52v-56z m-76 0c0-15 12-26 26-26s26 11 26 26v56h-52v-56z m-75 0c0-15 11-26 26-26s26 11 26 26v56h-52v-56z m-76 0c0-15 11-26 26-26s26 11 26 26v56h-52v-56z m-75 0c0-15 11-26 26-26s26 11 26 26v56h-52v-56z m-212-382c-2 0-3 0-5 1-17 0-33 11-39 28-7 22 4 46 26 53l2 1v24h-97v-24l2-1c12-4 21-14 26-26 3-11 3-22-2-32-5-10-13-18-24-21-4-2-9-3-14-3-18 0-34 11-39 28-4 11-3 22 2 32 5 10 13 18 24 21l2 1v24h-31c-5 0-10 3-11 8l-41 151c0 2 0 3 0 4 0 6 5 11 11 11h275l13 52c2 5 7 9 12 9h60v-24h-51l-54-203c-1-5-6-9-11-9h-28v-23l3-1c12-5 21-14 25-26 4-11 3-22-1-32-5-10-14-18-24-22-5 0-8-1-11-1l0 0z m-4 60c-10 0-18-8-18-18 0-10 8-19 18-19s18 9 18 19c0 10-8 18-18 18z m-121 0c-10 0-18-8-18-18 0-10 8-19 18-19s18 9 18 19c0 10-8 18-18 18z m151 69l34 128h-253l34-128h185z m416 37c-7 0-12 5-12 12v105c0 7 5 12 12 12h151c6 0 11-5 11-12v-105c0-7-5-12-11-12h-151z m139 24v82h-128v-82h128z m-665 127v180l-38-38-16 17 58 58 0 0c2 2 5 3 8 3 3 0 6-1 8-3l58-58-17-17-38 38v-180h-23z m646 181c-3 0-6 1-8 4l-58 58 17 16 38-38v187h-68l0-3c-8-62-56-110-118-117-5-1-10-1-14-1-68 0-124 51-132 118l0 3h-129l0-3c-7-78-69-140-148-147l-1 0c-4-1-9-1-14-1-84 0-154 64-161 148-4 44 9 86 37 119 27 34 66 54 110 58l1 0c5 1 9 1 14 1 85 0 154-64 162-148l0-3h129l0 3c7 62 55 110 117 117 5 0 10 1 15 1 68 0 124-51 132-118l0-3h79c7 0 12-5 12-12v-198l38 38 17-17-58-58c-3-3-6-3-8-4l-1 0 0 0z m-696 114c19-10 41-15 62-15 22 0 43 5 62 15l2 1v31c-1 28-24 51-51 51h-26c-28 0-51-23-51-51v-31l2-1z m485 234c-60 0-109-49-109-109s49-109 109-109c60 0 109 49 109 109s-49 109-109 109z m-374-137c24-13 38-38 38-65v-15l6 5c4 3 7 7 11 11 24 27 37 63 35 100-2 37-19 72-46 96-26 23-59 36-93 36-40 0-78-17-104-47-25-28-38-63-35-101 2-37 18-71 46-95l5-5v15c0 27 15 51 39 64l4 3-4 3c-2 1-4 3-5 5-13 14-19 33-18 52 1 19 9 37 23 50 14 12 31 19 49 19 20 0 40-9 53-24 27-29 25-75-5-102l-3-3 4-2z m-49 107c-27 0-49-22-49-49s22-48 49-48 48 21 48 48-21 49-48 49z m423-162c-22 0-41 17-45 38l-1 4h24l1-2c2-9 11-16 20-16l1 0c12 0 22 9 23 21 0 13-6 16-26 23-17 5-42 12-42 44 0 25 20 45 45 46h1c22 0 41-17 45-38l0-4h-23l-1 2c-3 9-11 16-21 16h-1c-12 0-21-10-22-21 0-13 6-16 26-22 17-5 42-13 42-45 0-25-20-45-44-45l-1-1h-1z" horiz-adv-x="1000" />

<glyph glyph-name="dyn-popups" unicode="&#xe84a;" d="M811 682h-623c-8 0-15-7-15-16v-628c0-9 7-16 15-16h623c8 0 15 7 15 16v628c1 9-6 16-15 16z m-16-628h-591v596h591v-596z m-126 488l22 23-22 23c-5 5-5 12 0 17 4 4 12 4 16 0l23-23 23 23c5 4 12 4 17 0 4-5 4-13 0-17l-23-23 23-22c5-5 5-13 0-17-2-3-6-4-9-4-3 0-6 1-8 4l-23 23-23-23c-2-3-5-4-8-4-3 0-6 1-9 4-4 4-4 12 1 16z m-396-174c0 7 6 12 12 12h447c7 0 12-5 12-12s-5-12-12-12h-447c-6 0-12 6-12 12z m428-60c7 0 12-5 12-12s-5-12-12-12h-385c-6 0-12 6-12 12s6 12 12 12l385 0 0 0z m-428-84c0 6 6 12 12 12h447c7 0 12-6 12-12s-5-12-12-12h-447c-6 0-12 5-12 12z m361-72c0-7-5-12-12-12h-226c-7 0-12 5-12 12s5 12 12 12h226c7 0 12-5 12-12z m-134 565c-3 0-5 2-5 5v105c0 3 2 5 5 5s5-2 5-5v-105c0-3-2-5-5-5z m0-845c-3 0-5 2-5 5v105c0 3 2 5 5 5s5-2 5-5v-105c0-3-2-5-5-5z m475 475h-105c-3 0-5 2-5 5s2 5 5 5h105c2 0 5-2 5-5s-3-5-5-5z m-845 0h-104c-3 0-6 2-6 5s3 5 6 5h104c3 0 5-2 5-5s-2-5-5-5z m736 366c-1 0-3 0-4 1-2 2-2 6 0 8l74 73c2 2 5 2 7 0 2-2 2-5 0-7l-73-74c-1-1-3-1-4-1z m-810-810c-1 0-3 0-4 1-2 2-2 6 0 8l74 73c2 2 5 2 7 0 2-2 2-5 0-7l-73-74c-1-1-3-1-4-1z m884 0c-1 0-3 0-4 1l-74 74c-2 2-2 5 0 7s6 2 8 0l73-73c3-2 3-6 0-8 0-1-2-1-3-1z m-810 810c-1 0-3 0-4 1l-74 74c-2 2-2 6 0 8 2 2 6 2 8 0l73-74c2-2 2-6 0-7-1-2-2-2-3-2z" horiz-adv-x="1000" />

<glyph glyph-name="dyn-christmas_tree" unicode="&#xe84b;" d="M563-100v93h272l-189 171h161l-169 139h152l-160 139h108l-168 181 17-9-22 78 61 56-87 20-38 59-38-59-87-20 61-56-23-78 17 8-167-180h107l-159-139h152l-170-140h161l-189-170h273v-93h-356v-31h836v31h-356z m-81 841l19 29 19-29 42-10-32-29 8-29-28 14-9 10-9-10-28-14 8 29-32 29 42 10z m-235-717l189 171h-155l169 139h-156l160 139h-119l166 179 166-179h-119l159-139h-155l169-139h-155l189-171h-508z m285-124h-62v93h62v-93z m15 635h31v-31h-31v31z m-124-139h31v-31h-31v31z m124-140h31v-31h-31v31z m-139-154h31v-32h-31v32z m542-202h31v-31h-31v31z m-929 0h31v-31h-31v31z m836 929h31v-62h-31v62z m-72-42l22 22 44-44-22-22-44 44z m-21-51h62v-31h-62v31z m21-81l44 44 21-22-43-44-22 22z m72 20h31v-62h-31v62z m38 2l21 22 44-44-22-22-43 44z m24 59h62v-31h-62v31z m-25 29l44 44 22-22-44-44-22 22z m-780 64h31v-62h-31v62z m-72-42l21 22 44-44-22-22-43 44z m-21-51h62v-31h-62v31z m21-81l43 44 22-22-44-44-21 22z m72 20h31v-62h-31v62z m37 2l22 22 44-44-22-22-44 44z m25 59h61v-31h-61v31z m-25 29l44 44 22-22-44-44-22 22z m768-369h31v-31h-31v31z m-31-31h31v-31h-31v31z m31-31h31v-31h-31v31z m31 31h31v-31h-31v31z m-898-217h31v-31h-31v31z m-31-31h31v-31h-31v31z m31-31h31v-31h-31v31z m31 31h31v-31h-31v31z m93 341h30v-31h-30v31z m-31-31h31v-31h-31v31z m31-31h30v-31h-30v31z m30 31h31v-31h-31v31z m636-279h30v-31h-31v31z m-32-31h32v-31h-32v31z m32-31h30v-31h-31v31z m30 31h31v-31h-31v31z" horiz-adv-x="1000" />

<glyph glyph-name="dyn-idea" unicode="&#xe84c;" d="M909 831l0 0-90-68-91-210h-72l-29 62h19c34 0 62 27 62 61v62h31v93h-93v-93h31v-62c0-17-14-31-31-31h-33l-40 86 47 24-154 66-37-128c-1 76-63 138-139 138-77 0-139-63-139-139 0-47 24-90 62-116v-23h-38l-2-13c-7-39-8-79-2-119l-105-188 116-27v-194h155v-140h371v216c108 77 170 199 170 331l0 56c0 21-2 43-6 65l-3 13h-30l70 166v112z m-232-62v31h30v-31h-30z m-55-216h-59l-28 62h58l29-62z m-136 226l61-27-14-7 46-100h-58l-38 83-14-7 17 58z m43-226h-69v30c0 17 14 32 31 32h10v0l28-62z m-61 133l19-41c-32-2-58-29-58-62v-30h-62v23c31 20 52 53 59 89l42 21z m-286 6c0 59 48 108 108 108 60 0 109-49 109-108 0-39-21-75-54-94l-8-5v-40h-31v95c18 6 31 23 31 44 0 25-21 46-47 46s-46-21-46-46c0-21 13-38 31-44v-95h-31v40l-8 5c-33 19-54 55-54 94z m108-16c-8 0-15 7-15 16 0 8 7 15 15 15s16-7 16-15-7-16-16-16z m553-154c3-16 4-31 4-47l0-56c0-124-61-240-164-310l-6-5v-201h-310v139h-154v189l-100 23 90 161-1 6c-5 34-6 70-1 101h12 155 475z m-37 31h-44l77 179 34-17-67-162z m72 194l-17 9 17 13v-22z m-511-272h31c0-46-34-77-77-77-42 0-77 31-77 77h31c0-30 21-46 46-46 26 0 46 16 46 46z" horiz-adv-x="1000" />

<glyph glyph-name="dyn-woo_sku" unicode="&#xe84d;" d="M60 560h-31v259h259v-31h-228v-228z m0-426h-31v-259h259v31h-228v228z m654 685v-31h228v-228h30v259h-258z m228-913h-228v-31h258v259h-30v-228z m-91 548h121v-31h-121v-274h-700v274h-122v31h122v91h700v-91z m-31-31h-30v-213h-31v213h-30v-152h-30v152h-31v-213h-30v213h-31v-152h-30v152h-31v-152h-30v152h-30v-152h-31v152h-30v-152h-31v152h-30v-152h-31v152h-30v-152h-30v152h-31v-213h-30v213h-30v-243h638v243z m0 91h-638v-61h30v31h30v-30h31v30h30v-30h31v30h30v-30h30v30h31v-30h30v30h31v-30h30v30h30v-30h31v30h30v-30h31v30h30v-30h31v30h30v-30h30v30h31v-30h30v60z m-547-304h30v31h-30v-31z m61 0h30v31h-31v-31z m60 0h31v31h-31v-31z m61 0h31v31h-31v-31z m61 0h30v31h-30v-31z m61 0h30v31h-30v-31z m122 0h30v31h-30v-31z" horiz-adv-x="1000" />

<glyph glyph-name="dyn-taxonomy" unicode="&#xe84e;" d="M903 527c53 0 96 43 96 96 0 54-43 97-96 97-54 0-97-44-97-97s43-96 97-96z m0-85c-54 0-97-43-97-96 0-54 44-97 97-97 53 0 96 44 96 97 0 53-43 96-96 96z m0-278c-54 0-97-43-97-96 0-54 44-97 97-97 53 0 96 44 96 97 0 53-43 96-96 96z m-625 557h-278v-751h345c220 0 378 141 378 364 0 276-193 387-445 387z m212-483h-330v255h144l36-70h150v-185z" horiz-adv-x="1000" />

<glyph glyph-name="dyn-woo_order" unicode="&#xe84f;" d="M907 838h-721c-44 0-79-36-79-79v-244l-89-90c-3-3-5-7-5-11v-548h32v542l62 62v-40c0-9 7-16 16-16h186c-7-27-32-47-61-47h-62c-9 0-16-7-16-15 0-53-41-94-94-94v-32c11 0 21 2 31 4v-223c0-43 36-78 79-78h47v-63h31v63h251v-32c0-4 2-8 5-11l31-31 22 22-26 27v97l31 31v-72h31v431c0 13 11 23 24 23 13 0 23-11 23-23v-220-133h32v133c0 13 10 23 23 23 13 0 24-10 24-23v-133h31v133c0 13 11 23 24 23 13 0 23-10 23-23v-133h16 15l0 133c0 13 11 23 24 23s23-10 23-23v-306h31v65c36 7 63 39 63 77v752c0 43-35 79-78 79z m47-831c0-21-13-38-31-44v208c0 31-25 55-55 55-16 0-30-6-40-16-10 10-24 16-39 16-15 0-29-6-39-16-10 10-24 16-39 16-9 0-17-2-24-5v170c0 30-24 55-55 55-30 0-55-25-55-55v-315l-58-58c-3-3-4-7-4-11v-47h-329c-26 0-47 21-47 47v236c33 19 57 53 61 93h48c52 0 94 42 94 94 0 9-7 16-15 16h-188v62 251c0 26 21 47 47 47h721c26 0 47-21 47-47l0-752 0 0z m-502 768h-235c-9 0-16-7-16-16v-78c0-9 7-16 16-16h235c9 0 16 7 16 16v78c0 9-7 16-16 16z m-15-78h-204v47h204v-47z m439 78h-236c-8 0-15-7-15-16v-78c0-9 7-16 15-16h236c8 0 15 7 15 16v78c0 9-7 16-15 16z m-16-78h-204v47h204v-47z m-408-392h-235c-9 0-16-7-16-16v-78c0-9 7-16 16-16h235c9 0 16 7 16 16v78c0 9-7 16-16 16z m-15-79h-204v47h204v-47z m94 549h31v-298h-31v298z m-330-141h173v-32h-173v32z m220 0h47v-32h-47v32z m-220-63h173v-31h-173v31z m220 0h47v-31h-47v31z m-220-63h173v-31h-173v31z m220 0h47v-31h-47v31z m0-62h47v-32h-47v32z m0-63h47v-31h-47v31z m-220-220h173v-31h-173v31z m220 0h47v-31h-47v31z m-220-62h173v-32h-173v32z m220 0h47v-32h-47v32z m-220-63h173v-31h-173v31z m220 0h47v-31h-47v31z m204 596h172v-32h-172v32z m219 0h47v-32h-47v32z m-219-63h172v-31h-172v31z m219 0h47v-31h-47v31z m-219-63h172v-31h-172v31z m219 0h47v-31h-47v31z m-125-62h78v-32h-78v32z m125 0h47v-32h-47v32z m-125-63h78v-31h-78v31z m125 0h47v-31h-47v31z m-125-63h78v-31h-78v31z m125 0h47v-31h-47v31z" horiz-adv-x="1000" />

<glyph glyph-name="dyn-woo_cartpage" unicode="&#xe850;" d="M813 315c-2 1-4 1-5 1h-392c-5 0-10-2-13-7-3-4-4-9-2-14l68-228c2-7 8-12 15-12h253c7 0 13 5 15 11l71 229c3 9-2 18-10 20z m-88-227h-228l-59 196h347l-60-196z m180 244c-6 0-13-4-15-10l-110-299h-331v-33h81v-36c-25-9-38-37-29-62 9-25 37-39 62-30 25 9 39 37 30 63-5 14-16 25-30 29v36h147v-36c-26-9-39-37-30-62 9-25 37-39 62-30 26 9 39 37 30 63-5 14-16 25-30 29v36h49c7 0 13 4 16 11l110 299h70v32h-82z m-358-440c-9 0-16 8-16 17s7 16 16 16 16-7 16-16c0-9-7-17-16-17z m179 0c-9 0-16 8-16 17s7 16 16 16 16-7 16-16c0-9-7-17-16-17z m-233 648l-293 293c-6 6-17 6-23 0 0 0 0 0 0 0l-163-163c-7-6-7-17 0-23 0 0 0 0 0 0l293-293c3-3 7-5 12-5h163c9 0 16 7 16 16 0 0 0 0 0 0v163c0 4-2 9-5 12z m-28-159h-140l-277 277 140 140 277-277v-140z m379 313c-18 18-46 18-64 1 0 0 0-1 0-1-23-22-11-45-3-59 8-16 7-17 3-22-5-4-13-4-18 0-4 5-4 13 0 18l-23 23c-17-18-17-46 1-64 17-17 45-17 63 0 22 22 10 46 3 60-8 15-7 17-3 21 5 5 13 5 17 0 5-5 5-13 0-17l23-23c18 17 18 46 1 63z m-633-643l23-23c15 15 16 41 0 56s-41 16-57 1c0 0 0 0 0-1-14-14-15-37-3-53 6-11 6-12 3-14-3-3-8-3-11 0-3 3-3 7 0 10 0 0 0 0 0 0l-23 23c-15-15-15-41 0-56 8-8 18-12 29-12l0 0c10 0 21 4 28 12 14 14 15 37 3 52-6 12-6 12-3 15 3 3 8 3 11 0 3-3 3-7 0-10 0 0 0 0 0 0z m771 668c0 0 0 0 0 0l-114 114c-6 6-17 6-23 0 0 0 0 0 0 0l-212-212c-3-3-5-7-5-12v-114c0-9 8-16 17-16 0 0 0 0 0 0h114c4 0 8 2 11 5l212 212c7 6 7 17 0 23z m-230-207h-91v91l196 195 91-91-196-195z m-433-326c0 0 0 0 0 0h-114c-5 0-9-2-12-5l-179-179c-7-7-7-17 0-23 0 0 0 0 0 0l114-114c6-7 16-7 23 0 0 0 0 0 0 0l179 179c3 3 5 7 5 12v114c0 9-7 16-16 16z m-17-124l-163-163-91 91 163 163h91l0-91 0 0z m90 417c-14 0-24-11-24-24 0-13 11-24 24-24 14 0 24 11 24 24 0 13-10 24-24 24z m-54 53c11 21 7 46-10 63-27 27-54 13-73 3-19-10-25-12-35-3-8 9-8 23 0 31 9 9 23 9 31 0l23 23c-17 17-42 21-63 10l-28 27-23-23 28-27c-11-21-7-47 9-64 27-27 55-12 73-3 20 11 26 12 35 3 9-8 9-22 0-31-8-8-22-8-31 0l-23-23c17-17 43-20 64-9l25-25 23 23-25 25z" horiz-adv-x="1000" />

<glyph glyph-name="dyn-woo_productlist" unicode="&#xe851;" d="M455 216h-325c-4 0-8-2-10-5-3-3-4-7-3-11l39-169 0 0c5-15 18-25 33-25h206 0c16 0 29 10 33 25l0 0 39 169c1 4 0 8-2 11-2 3-6 5-10 5z m-51-178c-1-4-4-7-8-7h-206c-4 0-8 3-9 7l-20 88h264l-21-88z m26 113h-275l-10 40h294l-9-40z m-15-155h-242c-14 0-26 10-29 24l-49 216c-6 25-29 43-54 43h-21c-7 0-13-6-13-13s6-13 13-13h20c14 0 27-9 30-23l49-217c6-25 28-42 54-42h242c7 0 13 6 13 13 0 7-6 12-13 12z m-32-45c-21 0-38-14-44-33h-76c-5 19-23 33-43 33-2 0-4 0-5-1-23-2-40-22-40-45 0-23 17-42 40-45 1 0 3 0 5 0 20 0 38 13 43 33h76c6-20 23-33 44-33 2 0 4 0 7 1 23 3 40 24 38 48-2 23-22 42-45 42z m-163-65c-11 0-20 9-20 20s9 20 20 20 20-9 20-20c0-11-9-20-20-20z m163 0c-11 0-20 9-20 20s9 20 20 20c11 0 20-9 20-20 0-11-9-20-20-20z m475 718v120h-120v99h-397v-484h120v-99h120v-120h396v484h-119z m-487-235v424h337v-69h-246v-355h-91z m120-99v424h337v-90h-247v-334h-90z m456-120h-336v424h336v-424z" horiz-adv-x="1000" />

<glyph glyph-name="dyn-woo_caregorylist" unicode="&#xe852;" d="M455 216h-325c-4 0-8-2-10-5-3-3-4-7-3-11l39-169 0 0c5-15 18-25 33-25h206 0c16 0 29 10 33 25l0 0 39 169c1 4 0 8-2 11-2 3-6 5-10 5z m-51-178c-1-4-4-7-8-7h-206c-4 0-8 3-9 7l-20 88h264l-21-88z m26 113h-275l-10 40h294l-9-40z m-2-167c0-7-6-13-13-13h-242c-25 0-48 17-54 42l-49 217c-3 14-15 23-29 23h-21c-7 0-13 6-13 13s6 13 13 13h20c26 0 48-18 55-43l48-216c4-14 16-24 30-24h242c7 0 13-5 13-12z m-45-33c-21 0-38-14-44-33h-76c-5 19-23 33-43 33-2 0-4 0-5-1-23-2-40-22-40-45 0-23 17-42 40-45 1 0 3 0 5 0 20 0 38 13 43 33h76c6-20 23-33 44-33 2 0 4 0 7 1 23 3 40 24 38 48-2 23-22 42-45 42z m-163-65c-11 0-20 9-20 20s9 20 20 20 20-9 20-20c0-11-9-20-20-20z m163 0c-11 0-20 9-20 20s9 20 20 20c11 0 20-9 20-20 0-11-9-20-20-20z m533 529v163h-77v160h-213l-52 100h-205v-365h76v-160h74v-162h471v264h-74z m-518 88v305h158l43-84 8-16h18 184v-130h-107l-51 99h-206v-174h-47z m77-160v304h157l43-83 9-16h18 184v-133h-111l-51 100h-206v-172h-43z m484-162h-411v304h158l43-83 8-17h18 184v-204z" horiz-adv-x="1000" />

<glyph glyph-name="dyn-relation" unicode="&#xe853;" d="M935 465c-7 7-19 7-26 0l-488-488c-36-36-84-56-135-56-52 0-100 20-136 56-36 36-55 84-55 135 0 52 19 100 55 136l489 488c52 52 133 49 189-7 56-56 59-137 7-189l-458-459c-26-26-68-26-93 0-26 25-26 67 0 93l310 310c7 7 7 19 0 26-7 7-18 7-25 0l-311-311c-39-40-39-104 0-144 40-39 104-39 144 0l459 459c66 66 63 169-8 240-70 70-173 74-240 7l-488-488c-43-43-66-100-66-161s23-118 66-160c43-43 100-67 161-67 61 0 118 24 160 67l489 488c7 7 7 18 0 25z" horiz-adv-x="1000" />

</font>
</defs>
</svg>
